(Classical) Franz Schubert — Symphonies № 5, 8 & 9 (D 485, 759 & 944) • Rosamunde (D 797 Op 26) (Karl Bohm) — 2012, FLAC (tracks+.cue) lossless


 

[Цитировать]

Symphonies № 5, 8 & 9 (D 485, 759 & 944) • Rosamunde (D 797 Op 26)-
Жанр: Classical
Страна-производитель дисов: Германия
Издатель (лейбл): Deutsche Grammophon
Номер по каталогу: 445 424-2
Год издания дисков: September, 10, 2012
Годы записи фонограмм: 03.1966 & 06.1963, Jesus Christ Church, Berlin, Germany
Композитор: Franz Peter Schubert
Исполнительский коллектив: Berlin Philharmonic Orchestra under Karl Böhm
Аудио кодек: flac
Тип рипа: tracks+.cue
Битрейт аудио: lossless
Продолжительность: 02h06'43"
Источник: web
Наличие сканов в содержимом раздачи: нет-Треклист:
CD1 [00h52'30"]
(01-04) Symphony № 5 B-Dur D 485 [28'28"]
(05-07) Rosamunde, Fürstin von Cypern, incidental music, D 797 Op 26 (extracts) [24'02"]-CD2 [01h14'13"]
(01-02) Symphony № 8 h-moll D 759 «Unfinished» [23'10"]
(03-06) Symphony № 9 C-Dur D 944 «The Great» [51'03"]-

EAC logs


-

CD1

Exact Audio Copy V0.99 prebeta 5 from 4. May 2009
EAC extraction logfile from 28. October 2009, 11:56
Schubert / Symphonies 5, 8 & 9, Rosamunde (extraits)
Used drive  : HL-DT-STCD-RW GCE-8527B   Adapter: 0  ID: 1
Read mode               : Secure
Utilize accurate stream : Yes
Defeat audio cache      : Yes
Make use of C2 pointers : No
Read offset correction                      : 6
Overread into Lead-In and Lead-Out          : No
Fill up missing offset samples with silence : Yes
Delete leading and trailing silent blocks   : No
Null samples used in CRC calculations       : Yes
Used interface                              : Native Win32 interface for Win NT & 2000
Gap handling                                : Appended to previous track
Used output format              : User Defined Encoder
Selected bitrate                : 768 kBit/s
Quality                         : High
Add ID3 tag                     : No
Command line compressor         : D:\Program Files\Exact Audio Copy\FLAC\FLAC.EXE
Additional command line options : -8 -V -T "ARTIST=%a" -T "TITLE=%t" -T "ALBUM=%g" -T "DATE=%y" -T "TRACKNUMBER=%n" -T "GENRE=%m" -T "COMMENT=Encoded by EAC 0.99pb5 FLAC -8" %s
TOC of the extracted CD
     Track |   Start  |  Length  | Start sector | End sector
    ---------------------------------------------------------
        1  |  0:00.33 |  7:23.00 |        33    |    33257
        2  |  7:23.33 |  9:54.00 |     33258    |    77807
        3  | 17:17.33 |  5:25.00 |     77808    |   102182
        4  | 22:42.33 |  5:46.00 |    102183    |   128132
        5  | 28:28.33 | 11:51.00 |    128133    |   181457
        6  | 40:19.33 |  6:48.00 |    181458    |   212057
        7  | 47:07.33 |  5:23.00 |    212058    |   236282
Track  1
     Filename C:\Mp3\Classic\Goclassic\Schubert\Schubert Symphonies N 5,8,9 - Bohm\CD1\01. Symphonie no 5 en Si B Majeur, D 485 - 1 - Allegro.wav
     Pre-gap length  0:00:02.33
     Peak level 95.5 %
     Track quality 100.0 %
     Test CRC 9B3B3F4A
     Copy CRC 9B3B3F4A
     Track not present in AccurateRip database
     Copy OK
Track  2
     Filename C:\Mp3\Classic\Goclassic\Schubert\Schubert Symphonies N 5,8,9 - Bohm\CD1\02. 2 - Andante con moto.wav
     Peak level 60.0 %
     Track quality 100.0 %
     Test CRC 8BA3D08F
     Copy CRC 8BA3D08F
     Track not present in AccurateRip database
     Copy OK
Track  3
     Filename C:\Mp3\Classic\Goclassic\Schubert\Schubert Symphonies N 5,8,9 - Bohm\CD1\03. 3 - Menuetto - Allegro molto - Trio.wav
     Peak level 60.0 %
     Track quality 100.0 %
     Test CRC E87C384D
     Copy CRC E87C384D
     Track not present in AccurateRip database
     Copy OK
Track  4
     Filename C:\Mp3\Classic\Goclassic\Schubert\Schubert Symphonies N 5,8,9 - Bohm\CD1\04. 4 - Allegro Vivace.wav
     Peak level 73.8 %
     Track quality 99.9 %
     Test CRC CCD4CAE6
     Copy CRC CCD4CAE6
     Track not present in AccurateRip database
     Copy OK
Track  5
     Filename C:\Mp3\Classic\Goclassic\Schubert\Schubert Symphonies N 5,8,9 - Bohm\CD1\05. Rosamunde, Princesse de Chypre, D 797 - Ouverture 'Die Zauberharfe'.wav
     Pre-gap length  0:00:06.00
     Peak level 89.1 %
     Track quality 100.0 %
     Test CRC 6A798F8E
     Copy CRC 6A798F8E
     Track not present in AccurateRip database
     Copy OK
Track  6
     Filename C:\Mp3\Classic\Goclassic\Schubert\Schubert Symphonies N 5,8,9 - Bohm\CD1\06. Ballet no 2.wav
     Pre-gap length  0:00:03.00
     Peak level 89.2 %
     Track quality 100.0 %
     Test CRC A0037051
     Copy CRC A0037051
     Track not present in AccurateRip database
     Copy OK
Track  7
     Filename C:\Mp3\Classic\Goclassic\Schubert\Schubert Symphonies N 5,8,9 - Bohm\CD1\07. Ballet no 9.wav
     Pre-gap length  0:00:03.00
     Peak level 75.7 %
     Track quality 100.0 %
     Test CRC 5A7870FC
     Copy CRC 5A7870FC
     Track not present in AccurateRip database
     Copy OK
None of the tracks are present in the AccurateRip database
No errors occurred
End of status report

-

CD2

Exact Audio Copy V0.99 prebeta 5 from 4. May 2009
EAC extraction logfile from 28. October 2009, 12:30
Franz Schubert / Symphonien Nos. 9 & 8 'Unfinished'
Used drive  : HL-DT-STCD-RW GCE-8527B   Adapter: 0  ID: 1
Read mode               : Secure
Utilize accurate stream : Yes
Defeat audio cache      : Yes
Make use of C2 pointers : No
Read offset correction                      : 6
Overread into Lead-In and Lead-Out          : No
Fill up missing offset samples with silence : Yes
Delete leading and trailing silent blocks   : No
Null samples used in CRC calculations       : Yes
Used interface                              : Native Win32 interface for Win NT & 2000
Gap handling                                : Appended to previous track
Used output format              : User Defined Encoder
Selected bitrate                : 768 kBit/s
Quality                         : High
Add ID3 tag                     : No
Command line compressor         : D:\Program Files\Exact Audio Copy\FLAC\FLAC.EXE
Additional command line options : -8 -V -T "ARTIST=%a" -T "TITLE=%t" -T "ALBUM=%g" -T "DATE=%y" -T "TRACKNUMBER=%n" -T "GENRE=%m" -T "COMMENT=Encoded by EAC 0.99pb5 FLAC -8" %s
TOC of the extracted CD
     Track |   Start  |  Length  | Start sector | End sector
    ---------------------------------------------------------
        1  |  0:00.33 | 11:31.00 |        33    |    51857
        2  | 11:31.33 | 11:38.50 |     51858    |   104257
        3  | 23:10.08 | 14:24.00 |    104258    |   169057
        4  | 37:34.08 | 13:53.25 |    169058    |   231557
        5  | 51:27.33 | 11:18.25 |    231558    |   282432
        6  | 62:45.58 | 11:27.50 |    282433    |   334007
Track  1
     Filename C:\Mp3\Classic\Goclassic\Schubert\Schubert Symphonies N 5,8,9 - Bohm\CD2\01. Symphony no.8 'Unfinished' - Allegro moderato.wav
     Pre-gap length  0:00:02.33
     Peak level 90.3 %
     Track quality 99.9 %
     Test CRC 5AB99028
     Copy CRC 5AB99028
     Track not present in AccurateRip database
     Copy OK
Track  2
     Filename C:\Mp3\Classic\Goclassic\Schubert\Schubert Symphonies N 5,8,9 - Bohm\CD2\02. Symphony no.8 'Unfinished' - Andante con moto.wav
     Peak level 80.8 %
     Track quality 99.9 %
     Test CRC 9B0F1B84
     Copy CRC 9B0F1B84
     Track not present in AccurateRip database
     Copy OK
Track  3
     Filename C:\Mp3\Classic\Goclassic\Schubert\Schubert Symphonies N 5,8,9 - Bohm\CD2\03. Symphony no.9 - Andante - Allegro ma non troppo.wav
     Pre-gap length  0:00:07.50
     Peak level 79.2 %
     Track quality 100.0 %
     Test CRC 308FDCE8
     Copy CRC 308FDCE8
     Track not present in AccurateRip database
     Copy OK
Track  4
     Filename C:\Mp3\Classic\Goclassic\Schubert\Schubert Symphonies N 5,8,9 - Bohm\CD2\04. Symphony no.9 - Andante con moto.wav
     Peak level 82.7 %
     Track quality 100.0 %
     Test CRC F31C1D0F
     Copy CRC F31C1D0F
     Track not present in AccurateRip database
     Copy OK
Track  5
     Filename C:\Mp3\Classic\Goclassic\Schubert\Schubert Symphonies N 5,8,9 - Bohm\CD2\05. Symphony no.9 - Scherzo. Allegro vivace - Trio.wav
     Peak level 74.6 %
     Track quality 100.0 %
     Test CRC 51046111
     Copy CRC 51046111
     Track not present in AccurateRip database
     Copy OK
Track  6
     Filename C:\Mp3\Classic\Goclassic\Schubert\Schubert Symphonies N 5,8,9 - Bohm\CD2\06. Symphony no.9 - Allegro vivace.wav
     Peak level 89.0 %
     Track quality 100.0 %
     Test CRC EA34E2E5
     Copy CRC EA34E2E5
     Track not present in AccurateRip database
     Copy OK
None of the tracks are present in the AccurateRip database
No errors occurred
End of status report

-

-

CUEs


-

CD1

REM DISCID 510C4E07
REM COMMENT "ExactAudioCopy v0.99pb5"
PERFORMER "Schubert"
TITLE "Symphonies 5, 8 & 9, Rosamunde (extraits)"
FILE "01. Symphonie no 5 en Si B Majeur, D 485 - 1 - Allegro.wav" WAVE
  TRACK 01 AUDIO
    TITLE "Symphonie no 5 en Si B Majeur, D 485 - 1 - Allegro"
    PERFORMER "Schubert"
    PREGAP 00:00:33
    INDEX 01 00:00:00
FILE "02. 2 - Andante con moto.wav" WAVE
  TRACK 02 AUDIO
    TITLE "2 - Andante con moto"
    PERFORMER "Schubert"
    INDEX 01 00:00:00
FILE "03. 3 - Menuetto - Allegro molto - Trio.wav" WAVE
  TRACK 03 AUDIO
    TITLE "3 - Menuetto - Allegro molto - Trio"
    PERFORMER "Schubert"
    INDEX 01 00:00:00
FILE "04. 4 - Allegro Vivace.wav" WAVE
  TRACK 04 AUDIO
    TITLE "4 - Allegro Vivace"
    PERFORMER "Schubert"
    INDEX 01 00:00:00
  TRACK 05 AUDIO
    TITLE "Rosamunde, Princesse de Chypre, D 797 - Ouverture 'Die Zauberharfe'"
    PERFORMER "Schubert"
    INDEX 00 05:40:00
FILE "05. Rosamunde, Princesse de Chypre, D 797 - Ouverture 'Die Zauberharfe'.wav" WAVE
    INDEX 01 00:00:00
  TRACK 06 AUDIO
    TITLE "Ballet no 2"
    PERFORMER "Schubert"
    INDEX 00 11:48:00
FILE "06. Ballet no 2.wav" WAVE
    INDEX 01 00:00:00
  TRACK 07 AUDIO
    TITLE "Ballet no 9"
    PERFORMER "Schubert"
    INDEX 00 06:45:00
FILE "07. Ballet no 9.wav" WAVE
    INDEX 01 00:00:00

-

CD2

REM GENRE Classical
REM DATE 1966
REM DISCID 5D116506
REM COMMENT "ExactAudioCopy v0.99pb5"
PERFORMER "Franz Schubert"
TITLE "Symphonien Nos. 9 & 8 'Unfinished'"
FILE "01. Symphony no.8 'Unfinished' - Allegro moderato.wav" WAVE
  TRACK 01 AUDIO
    TITLE "Symphony no.8 'Unfinished' - Allegro moderato"
    PERFORMER "Franz Schubert"
    PREGAP 00:00:33
    INDEX 01 00:00:00
FILE "02. Symphony no.8 'Unfinished' - Andante con moto.wav" WAVE
  TRACK 02 AUDIO
    TITLE "Symphony no.8 'Unfinished' - Andante con moto"
    PERFORMER "Franz Schubert"
    INDEX 01 00:00:00
  TRACK 03 AUDIO
    TITLE "Symphony no.9 - Andante - Allegro ma non troppo"
    PERFORMER "Franz Schubert"
    INDEX 00 11:31:00
FILE "03. Symphony no.9 - Andante - Allegro ma non troppo.wav" WAVE
    INDEX 01 00:00:00
FILE "04. Symphony no.9 - Andante con moto.wav" WAVE
  TRACK 04 AUDIO
    TITLE "Symphony no.9 - Andante con moto"
    PERFORMER "Franz Schubert"
    INDEX 01 00:00:00
FILE "05. Symphony no.9 - Scherzo. Allegro vivace - Trio.wav" WAVE
  TRACK 05 AUDIO
    TITLE "Symphony no.9 - Scherzo. Allegro vivace - Trio"
    PERFORMER "Franz Schubert"
    INDEX 01 00:00:00
FILE "06. Symphony no.9 - Allegro vivace.wav" WAVE
  TRACK 06 AUDIO
    TITLE "Symphony no.9 - Allegro vivace"
    PERFORMER "Franz Schubert"
    INDEX 01 00:00:00

-
-



Показать сообщения:    

Текущее время: 10-Дек 19:42

Часовой пояс: UTC + 3


Вы не можете начинать темы
Вы не можете отвечать на сообщения
Вы не можете редактировать свои сообщения
Вы не можете удалять свои сообщения
Вы не можете голосовать в опросах
Вы не можете прикреплять файлы к сообщениям
Вы не можете скачивать файлы