(Classical) Franz Schubert — Symphonies № 2, 3, 4, 5, 6 & 8 (D 125, 200, 417, 485, 589 & 759) (Lorin Maazel) — 1998, FLAC (tracks+.cue) lossless


 

[Цитировать]

Symphonies № 2, 3, 4, 5, 6 & 8 (D 125, 200, 417, 485, 589 & 759)-
Жанр: Classical
Страна-производитель диска: Германия
Издатель (лейбл): Deutsche Grammophon
Номер по каталогу: 457 964-2
Год издания диска: 1998
Годы записи фонограмм: 1961, 1962
Композитор: Franz Peter Schubert
Исполнительский коллектив: Berliner Philharmoniker under Lorin Maazel
Аудио кодек: flac
Тип рипа: tracks+.cue
Битрейт аудио: lossless
Продолжительность: 02h29'13"
Источник: web
Наличие сканов в содержимом раздачи: нет-Треклист:
CD1 [01h17'07"]
(01-04) Symphony № 2 B-Dur D 125 [27'30"]
(05-08) Symphony № 3 D-Dur D 200 [21'54"]
(09-12) Symphony № 4 c-moll D 417 «Tragische» [27'43"]-CD2 [01h12'06"]
(01-04) Symphony № 5 B-Dur D 485 [25'50"]
(05-08) Symphony № 6 C-Dur D 589 [23'46"]
(09-10) Symphony № 8 h-moll D 759 «Unfinished» [22'30"]-

EAC logs


-

CD1

Exact Audio Copy V1.0 beta 3 from 29. August 2011
EAC extraction logfile from 22. November 2014, 12:23
Lorin Maazel, Berliner Philharmoniker / Symponies No. 2, 3, 4, 5, 6 and 8
Used drive  : hp      DVD-RAM GHB0N   Adapter: 0  ID: 0
Read mode               : Secure
Utilize accurate stream : Yes
Defeat audio cache      : Yes
Make use of C2 pointers : No
Read offset correction                      : 6
Overread into Lead-In and Lead-Out          : No
Fill up missing offset samples with silence : Yes
Delete leading and trailing silent blocks   : No
Null samples used in CRC calculations       : Yes
Used interface                              : Native Win32 interface for Win NT & 2000
Gap handling                                : Appended to previous track
Used output format              : User Defined Encoder
Selected bitrate                : 1024 kBit/s
Quality                         : High
Add ID3 tag                     : No
Command line compressor         : C:\Program Files (x86)\Exact Audio Copy\Flac\flac.exe
Additional command line options : -8 -V -T "ARTIST=%artist%" -T "TITLE=%title%" -T "ALBUM=%albumtitle%" -T "DATE=%year%" -T "TRACKNUMBER=%tracknr%" -T "GENRE=%genre%" -T "PERFORMER=%albuminterpret%" -T "COMPOSER=%composer%" %haslyrics%--tag-from-file=LYRICS="%lyricsfile%"%haslyrics% -T "ALBUMARTIST=%albumartist%" -T "DISCNUMBER=%cdnumber%" -T "TOTALDISCS=%totalcds%" -T "TOTALTRACKS=%numtracks%" -T "COMMENT=%comment%" %source% -o %dest%
TOC of the extracted CD
     Track |   Start  |  Length  | Start sector | End sector
    ---------------------------------------------------------
        1  |  0:00.32 | 10:19.00 |        32    |    46456
        2  | 10:19.32 |  7:38.00 |     46457    |    80806
        3  | 17:57.32 |  3:28.00 |     80807    |    96406
        4  | 21:25.32 |  6:05.00 |     96407    |   123781
        5  | 27:30.32 |  8:38.00 |    123782    |   162631
        6  | 36:08.32 |  4:59.00 |    162632    |   185056
        7  | 41:07.32 |  3:47.00 |    185057    |   202081
        8  | 44:54.32 |  4:30.00 |    202082    |   222331
        9  | 49:24.32 |  7:53.00 |    222332    |   257806
       10  | 57:17.32 |  9:14.50 |    257807    |   299406
       11  | 66:32.07 |  3:38.60 |    299407    |   315816
       12  | 70:10.67 |  6:56.40 |    315817    |   347056
Track  1
     Filename E:\WHAT.CD\RIP EN COURS\Schubert - Symphonies 2, 3, 4, 5, 6 and 8 - Maazel - 1961-1962 [FLAC]\cd1\01 - Symphony No. 2 in B flat major D. 125 - I Largo - Allegro vivace.wav
     Pre-gap length  0:00:02.42
     Peak level 99.5 %
     Extraction speed 1.4 X
     Track quality 100.0 %
     Test CRC C03EAA26
     Copy CRC C03EAA26
     Accurately ripped (confidence 2)  [4DC4F309]  (AR v2)
     Copy OK
Track  2
     Filename E:\WHAT.CD\RIP EN COURS\Schubert - Symphonies 2, 3, 4, 5, 6 and 8 - Maazel - 1961-1962 [FLAC]\cd1\02 - Symphony No. 2 in B flat major D. 125 - II Andante - Variations I-V.wav
     Peak level 65.8 %
     Extraction speed 1.6 X
     Track quality 100.0 %
     Test CRC C09BAAEE
     Copy CRC C09BAAEE
     Accurately ripped (confidence 2)  [648BE8AD]  (AR v2)
     Copy OK
Track  3
     Filename E:\WHAT.CD\RIP EN COURS\Schubert - Symphonies 2, 3, 4, 5, 6 and 8 - Maazel - 1961-1962 [FLAC]\cd1\03 - Symphony No. 2 in B flat major D. 125 - III Menuetto- Allegro vivace.wav
     Peak level 86.9 %
     Extraction speed 1.6 X
     Track quality 100.0 %
     Test CRC 53B268DD
     Copy CRC 53B268DD
     Accurately ripped (confidence 2)  [F2E89CAD]  (AR v2)
     Copy OK
Track  4
     Filename E:\WHAT.CD\RIP EN COURS\Schubert - Symphonies 2, 3, 4, 5, 6 and 8 - Maazel - 1961-1962 [FLAC]\cd1\04 - Symphony No. 2 in B flat major D. 125 - IV Presto vivace.wav
     Peak level 94.5 %
     Extraction speed 1.8 X
     Track quality 100.0 %
     Test CRC F86303D2
     Copy CRC F86303D2
     Accurately ripped (confidence 1)  [D8211DD8]  (AR v2)
     Copy OK
Track  5
     Filename E:\WHAT.CD\RIP EN COURS\Schubert - Symphonies 2, 3, 4, 5, 6 and 8 - Maazel - 1961-1962 [FLAC]\cd1\05 - Symhony No. 3 in D major D. 200 - I Adagio maestro - Allegro con brio.wav
     Pre-gap length  0:00:08.00
     Peak level 91.9 %
     Extraction speed 2.0 X
     Track quality 100.0 %
     Test CRC 9E9BC4EF
     Copy CRC 9E9BC4EF
     Accurately ripped (confidence 1)  [E0FB0092]  (AR v2)
     Copy OK
Track  6
     Filename E:\WHAT.CD\RIP EN COURS\Schubert - Symphonies 2, 3, 4, 5, 6 and 8 - Maazel - 1961-1962 [FLAC]\cd1\06 - Symhony No. 3 in D major D. 200 - II Allegretto.wav
     Peak level 74.9 %
     Extraction speed 2.0 X
     Track quality 100.0 %
     Test CRC 564CB424
     Copy CRC 564CB424
     Accurately ripped (confidence 1)  [2E8C86F3]  (AR v2)
     Copy OK
Track  7
     Filename E:\WHAT.CD\RIP EN COURS\Schubert - Symphonies 2, 3, 4, 5, 6 and 8 - Maazel - 1961-1962 [FLAC]\cd1\07 - Symhony No. 3 in D major D. 200 - III Menuetto vivace.wav
     Peak level 99.7 %
     Extraction speed 2.0 X
     Track quality 100.0 %
     Test CRC 974EEBF5
     Copy CRC 974EEBF5
     Accurately ripped (confidence 1)  [743BDCD7]  (AR v2)
     Copy OK
Track  8
     Filename E:\WHAT.CD\RIP EN COURS\Schubert - Symphonies 2, 3, 4, 5, 6 and 8 - Maazel - 1961-1962 [FLAC]\cd1\08 - Symhony No. 3 in D major D. 200 - IV Presto vivace.wav
     Peak level 96.1 %
     Extraction speed 2.1 X
     Track quality 100.0 %
     Test CRC 4A5E514E
     Copy CRC 4A5E514E
     Accurately ripped (confidence 1)  [FB57B7DD]  (AR v2)
     Copy OK
Track  9
     Filename E:\WHAT.CD\RIP EN COURS\Schubert - Symphonies 2, 3, 4, 5, 6 and 8 - Maazel - 1961-1962 [FLAC]\cd1\09 - Symhony No. 4 in C minor D. 417 'Tragic' - I Adagio molto - Allegro vivace.wav
     Pre-gap length  0:00:05.00
     Peak level 97.9 %
     Extraction speed 2.3 X
     Track quality 100.0 %
     Test CRC FF443C16
     Copy CRC FF443C16
     Accurately ripped (confidence 1)  [48208552]  (AR v2)
     Copy OK
Track 10
     Filename E:\WHAT.CD\RIP EN COURS\Schubert - Symphonies 2, 3, 4, 5, 6 and 8 - Maazel - 1961-1962 [FLAC]\cd1\10 - Symhony No. 4 in C minor D. 417 'Tragic' - II Andante.wav
     Peak level 67.1 %
     Extraction speed 2.5 X
     Track quality 100.0 %
     Test CRC B8DF2798
     Copy CRC B8DF2798
     Accurately ripped (confidence 1)  [72F7E914]  (AR v2)
     Copy OK
Track 11
     Filename E:\WHAT.CD\RIP EN COURS\Schubert - Symphonies 2, 3, 4, 5, 6 and 8 - Maazel - 1961-1962 [FLAC]\cd1\11 - Symhony No. 4 in C minor D. 417 'Tragic' - III Menuetto- Allegro vivace.wav
     Peak level 93.4 %
     Extraction speed 2.1 X
     Track quality 99.9 %
     Test CRC DE7C2898
     Copy CRC DE7C2898
     Accurately ripped (confidence 1)  [E26A4FE5]  (AR v2)
     Copy OK
Track 12
     Filename E:\WHAT.CD\RIP EN COURS\Schubert - Symphonies 2, 3, 4, 5, 6 and 8 - Maazel - 1961-1962 [FLAC]\cd1\12 - Symhony No. 4 in C minor D. 417 'Tragic' - IV Allegro.wav
     Peak level 89.7 %
     Extraction speed 2.6 X
     Track quality 100.0 %
     Test CRC 08A49256
     Copy CRC 08A49256
     Accurately ripped (confidence 1)  [268D6319]  (AR v2)
     Copy OK
All tracks accurately ripped
No errors occurred
End of status report
==== Log checksum E34B8582476D63211248CC314C53D285439B602FDF6D4E9BF87E5CE22C99DFDD ====

-

CD2

Exact Audio Copy V1.0 beta 3 from 29. August 2011
EAC extraction logfile from 22. November 2014, 13:49
Lorin Maazel, Berliner Philharmoniker / Symponies No. 2, 3, 4, 5, 6 and 8
Used drive  : hp      DVD-RAM GHB0N   Adapter: 0  ID: 0
Read mode               : Secure
Utilize accurate stream : Yes
Defeat audio cache      : Yes
Make use of C2 pointers : No
Read offset correction                      : 6
Overread into Lead-In and Lead-Out          : No
Fill up missing offset samples with silence : Yes
Delete leading and trailing silent blocks   : No
Null samples used in CRC calculations       : Yes
Used interface                              : Native Win32 interface for Win NT & 2000
Gap handling                                : Appended to previous track
Used output format              : User Defined Encoder
Selected bitrate                : 1024 kBit/s
Quality                         : High
Add ID3 tag                     : No
Command line compressor         : C:\Program Files (x86)\Exact Audio Copy\Flac\flac.exe
Additional command line options : -8 -V -T "ARTIST=%artist%" -T "TITLE=%title%" -T "ALBUM=%albumtitle%" -T "DATE=%year%" -T "TRACKNUMBER=%tracknr%" -T "GENRE=%genre%" -T "PERFORMER=%albuminterpret%" -T "COMPOSER=%composer%" %haslyrics%--tag-from-file=LYRICS="%lyricsfile%"%haslyrics% -T "ALBUMARTIST=%albumartist%" -T "DISCNUMBER=%cdnumber%" -T "TOTALDISCS=%totalcds%" -T "TOTALTRACKS=%numtracks%" -T "COMMENT=%comment%" %source% -o %dest%
TOC of the extracted CD
     Track |   Start  |  Length  | Start sector | End sector
    ---------------------------------------------------------
        1  |  0:00.32 |  4:56.00 |        32    |    22231
        2  |  4:56.32 | 10:44.00 |     22232    |    70531
        3  | 15:40.32 |  4:22.58 |     70532    |    90239
        4  | 20:03.15 |  5:47.17 |     90240    |   116281
        5  | 25:50.32 |  6:46.00 |    116282    |   146731
        6  | 32:36.32 |  4:34.00 |    146732    |   167281
        7  | 37:10.32 |  4:38.00 |    167282    |   188131
        8  | 41:48.32 |  7:48.00 |    188132    |   223231
        9  | 49:36.32 | 10:54.00 |    223232    |   272281
       10  | 60:30.32 | 11:36.00 |    272282    |   324481
Track  1
     Filename E:\WHAT.CD\RIP EN COURS\Schubert - Symphonies 2, 3, 4, 5, 6 and 8 - Maazel - 1961-1962 [FLAC]\cd2\01 - Symphony No.5 (i - Allegro).wav
     Pre-gap length  0:00:02.42
     Peak level 95.3 %
     Extraction speed 1.1 X
     Track quality 100.0 %
     Test CRC 97AFF555
     Copy CRC 97AFF555
     Accurately ripped (confidence 2)  [433DC4B1]  (AR v2)
     Copy OK
Track  2
     Filename E:\WHAT.CD\RIP EN COURS\Schubert - Symphonies 2, 3, 4, 5, 6 and 8 - Maazel - 1961-1962 [FLAC]\cd2\02 - Symphony No.5 (ii - Andante con moto).wav
     Peak level 70.6 %
     Extraction speed 1.4 X
     Track quality 100.0 %
     Test CRC 96D06A11
     Copy CRC 96D06A11
     Accurately ripped (confidence 2)  [B944BA53]  (AR v2)
     Copy OK
Track  3
     Filename E:\WHAT.CD\RIP EN COURS\Schubert - Symphonies 2, 3, 4, 5, 6 and 8 - Maazel - 1961-1962 [FLAC]\cd2\03 - Symphony No.5 (iii - Menuetto- Allegro molto).wav
     Peak level 89.8 %
     Extraction speed 1.5 X
     Track quality 100.0 %
     Test CRC 8D8A8DD5
     Copy CRC 8D8A8DD5
     Accurately ripped (confidence 2)  [9F000EDC]  (AR v2)
     Copy OK
Track  4
     Filename E:\WHAT.CD\RIP EN COURS\Schubert - Symphonies 2, 3, 4, 5, 6 and 8 - Maazel - 1961-1962 [FLAC]\cd2\04 - Symphony No.5 (iv - Allegro vivace).wav
     Peak level 94.7 %
     Extraction speed 1.5 X
     Track quality 99.9 %
     Test CRC 59F145E3
     Copy CRC 59F145E3
     Accurately ripped (confidence 2)  [44C92CEA]  (AR v2)
     Copy OK
Track  5
     Filename E:\WHAT.CD\RIP EN COURS\Schubert - Symphonies 2, 3, 4, 5, 6 and 8 - Maazel - 1961-1962 [FLAC]\cd2\05 - Symphony No.6 (i - Adagio-Allegro).wav
     Pre-gap length  0:00:05.00
     Peak level 94.4 %
     Extraction speed 1.7 X
     Track quality 99.9 %
     Test CRC 89B4719F
     Copy CRC 89B4719F
     Accurately ripped (confidence 2)  [E0A8C92D]  (AR v2)
     Copy OK
Track  6
     Filename E:\WHAT.CD\RIP EN COURS\Schubert - Symphonies 2, 3, 4, 5, 6 and 8 - Maazel - 1961-1962 [FLAC]\cd2\06 - Symphony No.6 (ii - Andante).wav
     Peak level 87.1 %
     Extraction speed 1.8 X
     Track quality 100.0 %
     Test CRC CBB23A3B
     Copy CRC CBB23A3B
     Accurately ripped (confidence 2)  [A3AD60B4]  (AR v2)
     Copy OK
Track  7
     Filename E:\WHAT.CD\RIP EN COURS\Schubert - Symphonies 2, 3, 4, 5, 6 and 8 - Maazel - 1961-1962 [FLAC]\cd2\07 - Symphony No.6 (iii - Presto-Piu lento).wav
     Peak level 90.2 %
     Extraction speed 1.9 X
     Track quality 100.0 %
     Test CRC 97286DD8
     Copy CRC 97286DD8
     Accurately ripped (confidence 2)  [600A4829]  (AR v2)
     Copy OK
Track  8
     Filename E:\WHAT.CD\RIP EN COURS\Schubert - Symphonies 2, 3, 4, 5, 6 and 8 - Maazel - 1961-1962 [FLAC]\cd2\08 - Symphony No.6 (iv - Allegro moderato).wav
     Peak level 97.8 %
     Extraction speed 2.1 X
     Track quality 100.0 %
     Test CRC 3043F63D
     Copy CRC 3043F63D
     Accurately ripped (confidence 2)  [2F953EF5]  (AR v2)
     Copy OK
Track  9
     Filename E:\WHAT.CD\RIP EN COURS\Schubert - Symphonies 2, 3, 4, 5, 6 and 8 - Maazel - 1961-1962 [FLAC]\cd2\09 - Symphony No.8 (i - Allegro moderato).wav
     Pre-gap length  0:00:04.00
     Peak level 99.9 %
     Extraction speed 2.2 X
     Track quality 99.9 %
     Test CRC 654C2E30
     Copy CRC 654C2E30
     Accurately ripped (confidence 2)  [C80DDB0F]  (AR v2)
     Copy OK
Track 10
     Filename E:\WHAT.CD\RIP EN COURS\Schubert - Symphonies 2, 3, 4, 5, 6 and 8 - Maazel - 1961-1962 [FLAC]\cd2\10 - Symphony No.8 (ii - Andante con moto).wav
     Peak level 99.9 %
     Extraction speed 2.5 X
     Track quality 100.0 %
     Test CRC 789FFC21
     Copy CRC 789FFC21
     Accurately ripped (confidence 2)  [A1F7AF95]  (AR v2)
     Copy OK
All tracks accurately ripped
No errors occurred
End of status report
==== Log checksum 1110FF4B0395C3949DC492E9A7C600981A99F67A97009EFCCF486718EF79C4D2 ====

-

-

CUEs


-

CD1

REM GENRE Classical
REM DATE 1998
REM DISCID BE12130C
REM COMMENT "ExactAudioCopy v1.0b3"
CATALOG 0028945796529
PERFORMER "Lorin Maazel, Berliner Philharmoniker"
TITLE "Symponies No. 2, 3, 4, 5, 6 and 8"
FILE "01 - Symphony No. 2 in B flat major D. 125 - I Largo - Allegro vivace.wav" WAVE
  TRACK 01 AUDIO
    TITLE "Symphony No. 2 in B flat major D. 125 - I Largo - Allegro vivace"
    PERFORMER "Lorin Maazel, Berliner Philharmoniker"
    ISRC DEF056200971
    PREGAP 00:00:32
    INDEX 01 00:00:00
FILE "02 - Symphony No. 2 in B flat major D. 125 - II Andante - Variations I-V.wav" WAVE
  TRACK 02 AUDIO
    TITLE "Symphony No. 2 in B flat major D. 125 - II Andante - Variations I-V"
    PERFORMER "Lorin Maazel, Berliner Philharmoniker"
    ISRC DEF056200972
    INDEX 01 00:00:00
FILE "03 - Symphony No. 2 in B flat major D. 125 - III Menuetto- Allegro vivace.wav" WAVE
  TRACK 03 AUDIO
    TITLE "Symphony No. 2 in B flat major D. 125 - III Menuetto: Allegro vivace"
    PERFORMER "Lorin Maazel, Berliner Philharmoniker"
    ISRC DEF056200973
    INDEX 01 00:00:00
FILE "04 - Symphony No. 2 in B flat major D. 125 - IV Presto vivace.wav" WAVE
  TRACK 04 AUDIO
    TITLE "Symphony No. 2 in B flat major D. 125 - IV Presto vivace"
    PERFORMER "Lorin Maazel, Berliner Philharmoniker"
    ISRC DEF056200974
    INDEX 01 00:00:00
  TRACK 05 AUDIO
    TITLE "Symhony No. 3 in D major D. 200 - I Adagio maestro - Allegro con brio"
    PERFORMER "Lorin Maazel, Berliner Philharmoniker"
    ISRC DEF056200981
    INDEX 00 05:57:00
FILE "05 - Symhony No. 3 in D major D. 200 - I Adagio maestro - Allegro con brio.wav" WAVE
    INDEX 01 00:00:00
FILE "06 - Symhony No. 3 in D major D. 200 - II Allegretto.wav" WAVE
  TRACK 06 AUDIO
    TITLE "Symhony No. 3 in D major D. 200 - II Allegretto"
    PERFORMER "Lorin Maazel, Berliner Philharmoniker"
    ISRC DEF056200982
    INDEX 01 00:00:00
FILE "07 - Symhony No. 3 in D major D. 200 - III Menuetto vivace.wav" WAVE
  TRACK 07 AUDIO
    TITLE "Symhony No. 3 in D major D. 200 - III Menuetto vivace"
    PERFORMER "Lorin Maazel, Berliner Philharmoniker"
    ISRC DEF056200983
    INDEX 01 00:00:00
FILE "08 - Symhony No. 3 in D major D. 200 - IV Presto vivace.wav" WAVE
  TRACK 08 AUDIO
    TITLE "Symhony No. 3 in D major D. 200 - IV Presto vivace"
    PERFORMER "Lorin Maazel, Berliner Philharmoniker"
    ISRC DEF056200984
    INDEX 01 00:00:00
  TRACK 09 AUDIO
    TITLE "Symhony No. 4 in C minor D. 417 'Tragic' - I Adagio molto - Allegro vivace"
    PERFORMER "Lorin Maazel, Berliner Philharmoniker"
    ISRC DEF055901851
    INDEX 00 04:25:00
FILE "09 - Symhony No. 4 in C minor D. 417 'Tragic' - I Adagio molto - Allegro vivace.wav" WAVE
    INDEX 01 00:00:00
FILE "10 - Symhony No. 4 in C minor D. 417 'Tragic' - II Andante.wav" WAVE
  TRACK 10 AUDIO
    TITLE "Symhony No. 4 in C minor D. 417 'Tragic' - II Andante"
    PERFORMER "Lorin Maazel, Berliner Philharmoniker"
    ISRC DEF055901852
    INDEX 01 00:00:00
FILE "11 - Symhony No. 4 in C minor D. 417 'Tragic' - III Menuetto- Allegro vivace.wav" WAVE
  TRACK 11 AUDIO
    TITLE "Symhony No. 4 in C minor D. 417 'Tragic' - III Menuetto: Allegro vivace"
    PERFORMER "Lorin Maazel, Berliner Philharmoniker"
    ISRC DEF055901853
    INDEX 01 00:00:00
FILE "12 - Symhony No. 4 in C minor D. 417 'Tragic' - IV Allegro.wav" WAVE
  TRACK 12 AUDIO
    TITLE "Symhony No. 4 in C minor D. 417 'Tragic' - IV Allegro"
    PERFORMER "Lorin Maazel, Berliner Philharmoniker"
    ISRC DEF055901854
    INDEX 01 00:00:00

-

CD2

REM GENRE Classical
REM DATE 1998
REM DISCID 8910E60A
REM COMMENT "ExactAudioCopy v1.0b3"
CATALOG 0028945796628
PERFORMER "Lorin Maazel, Berliner Philharmoniker"
TITLE "Symponies No. 2, 3, 4, 5, 6 and 8"
FILE "01 - Symphony No.5 (i - Allegro).wav" WAVE
TRACK 01 AUDIO
TITLE "Symphony No.5 (i - Allegro)"
PERFORMER "Lorin Maazel, Berliner Philharmoniker"
ISRC DEF056100681
PREGAP 00:00:32
INDEX 01 00:00:00
FILE "02 - Symphony No.5 (ii - Andante con moto).wav" WAVE
TRACK 02 AUDIO
TITLE "Symphony No.5 (ii - Andante con moto)"
PERFORMER "Lorin Maazel, Berliner Philharmoniker"
ISRC DEF056100682
INDEX 01 00:00:00
FILE "03 - Symphony No.5 (iii - Menuetto- Allegro molto).wav" WAVE
TRACK 03 AUDIO
TITLE "Symphony No.5 (iii - Menuetto: Allegro molto)"
PERFORMER "Lorin Maazel, Berliner Philharmoniker"
ISRC DEF056100683
INDEX 01 00:00:00
FILE "04 - Symphony No.5 (iv - Allegro vivace).wav" WAVE
TRACK 04 AUDIO
TITLE "Symphony No.5 (iv - Allegro vivace)"
PERFORMER "Lorin Maazel, Berliner Philharmoniker"
ISRC DEF056100684
INDEX 01 00:00:00
TRACK 05 AUDIO
TITLE "Symphony No.6 (i - Adagio-Allegro)"
PERFORMER "Lorin Maazel, Berliner Philharmoniker"
ISRC DEF056100691
INDEX 00 05:42:17
FILE "05 - Symphony No.6 (i - Adagio-Allegro).wav" WAVE
INDEX 01 00:00:00
FILE "06 - Symphony No.6 (ii - Andante).wav" WAVE
TRACK 06 AUDIO
TITLE "Symphony No.6 (ii - Andante)"
PERFORMER "Lorin Maazel, Berliner Philharmoniker"
ISRC DEF056100692
INDEX 01 00:00:00
FILE "07 - Symphony No.6 (iii - Presto-Piu lento).wav" WAVE
TRACK 07 AUDIO
TITLE "Symphony No.6 (iii - Presto-Piu lento)"
PERFORMER "Lorin Maazel, Berliner Philharmoniker"
ISRC DEF056100693
INDEX 01 00:00:00
FILE "08 - Symphony No.6 (iv - Allegro moderato).wav" WAVE
TRACK 08 AUDIO
TITLE "Symphony No.6 (iv - Allegro moderato)"
PERFORMER "Lorin Maazel, Berliner Philharmoniker"
ISRC DEF056100694
INDEX 01 00:00:00
TRACK 09 AUDIO
TITLE "Symphony No.8 (i - Allegro moderato)"
PERFORMER "Lorin Maazel, Berliner Philharmoniker"
ISRC DEF055901861
INDEX 00 07:44:00
FILE "09 - Symphony No.8 (i - Allegro moderato).wav" WAVE
INDEX 01 00:00:00
FILE "10 - Symphony No.8 (ii - Andante con moto).wav" WAVE
TRACK 10 AUDIO
TITLE "Symphony No.8 (ii - Andante con moto)"
PERFORMER "Lorin Maazel, Berliner Philharmoniker"
ISRC DEF055901862
INDEX 01 00:00:00[code][/code]

-
-



Показать сообщения:    

Текущее время: 05-Дек 01:16

Часовой пояс: UTC + 3


Вы не можете начинать темы
Вы не можете отвечать на сообщения
Вы не можете редактировать свои сообщения
Вы не можете удалять свои сообщения
Вы не можете голосовать в опросах
Вы не можете прикреплять файлы к сообщениям
Вы не можете скачивать файлы