(Classical) Franz Schubert — Symphonies № 7 (8) & 8 (9) (D 759 & 944) (Bruno Weil) — 1992, FLAC (tracks+.cue) lossless


 

[Цитировать]

Symphonies № 7 (8) & 8 (9) (D 759 & 944)- Жанр: Classical
Страна-производитель диска: США
Издатель (лейбл): Sony Classical
Номер по каталогу: SNYC 48132
Год издания диска: May, 5, 1992
Год записи фонограммы: 09.08.1991-11.08.1991, Tilles Center, C.W. Post Campus, Long Island University, New-York
Композитор: Franz Peter Schubert
Исполнительский коллектив: Classical Band under Bruno Weil
Аудио кодек: flac
Тип рипа: tracks+.cue
Битрейт аудио: lossless
Продолжительность: 01h11'05"
Источник: web
Наличие сканов в содержимом раздачи: нет-Треклист:
(01-02) Symphony № 7 (8) h-moll D 759 «Unfinished» [21'12"]
(03-06) Symphony № 8 (9) C-Dur D 944 «The Great» [49'53"]-

EAC log

Exact Audio Copy V1.0 beta 3 from 29. August 2011
EAC extraction logfile from 1. November 2014, 13:51
Bruno Weil, The Classical Band / Symphonies No.7 "Unfinished" & No.8 "The Great"
Used drive  : hp      DVD-RAM GHB0N   Adapter: 0  ID: 0
Read mode               : Secure
Utilize accurate stream : Yes
Defeat audio cache      : Yes
Make use of C2 pointers : No
Read offset correction                      : 6
Overread into Lead-In and Lead-Out          : No
Fill up missing offset samples with silence : Yes
Delete leading and trailing silent blocks   : No
Null samples used in CRC calculations       : Yes
Used interface                              : Native Win32 interface for Win NT & 2000
Gap handling                                : Appended to previous track
Used output format              : User Defined Encoder
Selected bitrate                : 1024 kBit/s
Quality                         : High
Add ID3 tag                     : No
Command line compressor         : C:\Program Files (x86)\Exact Audio Copy\Flac\flac.exe
Additional command line options : -8 -V -T "ARTIST=%artist%" -T "TITLE=%title%" -T "ALBUM=%albumtitle%" -T "DATE=%year%" -T "TRACKNUMBER=%tracknr%" -T "GENRE=%genre%" -T "PERFORMER=%albuminterpret%" -T "COMPOSER=%composer%" %haslyrics%--tag-from-file=LYRICS="%lyricsfile%"%haslyrics% -T "ALBUMARTIST=%albumartist%" -T "DISCNUMBER=%cdnumber%" -T "TOTALDISCS=%totalcds%" -T "TOTALTRACKS=%numtracks%" -T "COMMENT=%comment%" %source% -o %dest%
TOC of the extracted CD
     Track |   Start  |  Length  | Start sector | End sector
    ---------------------------------------------------------
        1  |  0:00.00 | 12:16.20 |         0    |    55219
        2  | 12:16.20 |  8:56.05 |     55220    |    95424
        3  | 21:12.25 | 11:43.33 |     95425    |   148182
        4  | 32:55.58 | 13:07.10 |    148183    |   207217
        5  | 46:02.68 | 13:38.27 |    207218    |   268594
        6  | 59:41.20 | 11:23.50 |    268595    |   319869
Track  1
     Filename E:\WHAT.CD\UPLOAD\Schubert - Symphonies 7 and 8 - 1992 - Weil [FLAC]\01 - Symphony #7 (8), D759 - I - Allegro Moderato.wav
     Pre-gap length  0:00:02.00
     Peak level 100.0 %
     Extraction speed 2.4 X
     Track quality 100.0 %
     Test CRC F8E67E6A
     Copy CRC F8E67E6A
     Accurately ripped (confidence 14)  [EBF9832B]  (AR v2)
     Copy OK
Track  2
     Filename E:\WHAT.CD\UPLOAD\Schubert - Symphonies 7 and 8 - 1992 - Weil [FLAC]\02 - Symphony #7 (8), D759 - II - Andante con moto.wav
     Pre-gap length  0:00:03.00
     Peak level 96.8 %
     Extraction speed 2.8 X
     Track quality 100.0 %
     Test CRC 55AB9E80
     Copy CRC 55AB9E80
     Accurately ripped (confidence 14)  [D8DF922D]  (AR v2)
     Copy OK
Track  3
     Filename E:\WHAT.CD\UPLOAD\Schubert - Symphonies 7 and 8 - 1992 - Weil [FLAC]\03 - Symphony #8 (9), D944 - I - Andante - Allegro ma non troppo.wav
     Pre-gap length  0:00:03.00
     Peak level 100.0 %
     Extraction speed 3.3 X
     Track quality 100.0 %
     Test CRC 2BE6A859
     Copy CRC 2BE6A859
     Accurately ripped (confidence 14)  [92597D9D]  (AR v2)
     Copy OK
Track  4
     Filename E:\WHAT.CD\UPLOAD\Schubert - Symphonies 7 and 8 - 1992 - Weil [FLAC]\04 - Symphony #8 (9), D944 - II - Andante con moto.wav
     Pre-gap length  0:00:03.00
     Peak level 100.0 %
     Extraction speed 3.6 X
     Track quality 99.9 %
     Test CRC 6CA1FC77
     Copy CRC 6CA1FC77
     Accurately ripped (confidence 14)  [8C638AEB]  (AR v2)
     Copy OK
Track  5
     Filename E:\WHAT.CD\UPLOAD\Schubert - Symphonies 7 and 8 - 1992 - Weil [FLAC]\05 - Symphony #8 (9), D944 - III - Scherzo- Allegro vivace - Trio.wav
     Pre-gap length  0:00:03.00
     Peak level 92.9 %
     Extraction speed 4.0 X
     Track quality 99.9 %
     Test CRC BEC94C73
     Copy CRC BEC94C73
     Accurately ripped (confidence 14)  [84EAB2F5]  (AR v2)
     Copy OK
Track  6
     Filename E:\WHAT.CD\UPLOAD\Schubert - Symphonies 7 and 8 - 1992 - Weil [FLAC]\06 - Symphony #8 (9), D944 - IV - Finale- Allegro vivace.wav
     Pre-gap length  0:00:03.00
     Peak level 97.7 %
     Extraction speed 4.4 X
     Track quality 100.0 %
     Test CRC CE4D0F7E
     Copy CRC CE4D0F7E
     Accurately ripped (confidence 14)  [975D0D85]  (AR v2)
     Copy OK
All tracks accurately ripped
No errors occurred
End of status report
---- CUETools DB Plugin V2.1.3
[CTDB TOCID: nW9hyTX3O1RtwaH5VoKDRjbBayw-] found, Submit result: nW9hyTX3O1RtwaH5VoKDRjbBayw- has been confirmed
[5c640d0a] (17/17) Accurately ripped
==== Log checksum BA544F3152580A0B9D15735AC22635E6B5A608D15A7343D4A78A8D281713F9A4 ====

-

CUE

REM GENRE Classical
REM DATE 1992
REM DISCID 6010A806
REM COMMENT "ExactAudioCopy v1.0b3"
PERFORMER "Bruno Weil, The Classical Band"
TITLE "Symphonies No.7 'Unfinished' & No.8 'The Great'"
FILE "01 - Symphony #7 (8), D759 - I - Allegro Moderato.wav" WAVE
  TRACK 01 AUDIO
    TITLE "Symphony #7 (8), D759 - I - Allegro Moderato"
    PERFORMER "Bruno Weil, The Classical Band"
    ISRC USSM11005305
    INDEX 01 00:00:00
  TRACK 02 AUDIO
    TITLE "Symphony #7 (8), D759 - II - Andante con moto"
    PERFORMER "Bruno Weil, The Classical Band"
    ISRC USSM11005306
    INDEX 00 12:13:20
FILE "02 - Symphony #7 (8), D759 - II - Andante con moto.wav" WAVE
    INDEX 01 00:00:00
  TRACK 03 AUDIO
    TITLE "Symphony #8 (9), D944 - I - Andante - Allegro ma non troppo"
    PERFORMER "Bruno Weil, The Classical Band"
    ISRC USSM11005308
    INDEX 00 08:53:05
FILE "03 - Symphony #8 (9), D944 - I - Andante - Allegro ma non troppo.wav" WAVE
    INDEX 01 00:00:00
  TRACK 04 AUDIO
    TITLE "Symphony #8 (9), D944 - II - Andante con moto"
    PERFORMER "Bruno Weil, The Classical Band"
    ISRC USSM11005309
    INDEX 00 11:40:33
FILE "04 - Symphony #8 (9), D944 - II - Andante con moto.wav" WAVE
    INDEX 01 00:00:00
  TRACK 05 AUDIO
    TITLE "Symphony #8 (9), D944 - III - Scherzo: Allegro vivace - Trio"
    PERFORMER "Bruno Weil, The Classical Band"
    ISRC USSM11005310
    INDEX 00 13:04:10
FILE "05 - Symphony #8 (9), D944 - III - Scherzo- Allegro vivace - Trio.wav" WAVE
    INDEX 01 00:00:00
  TRACK 06 AUDIO
    TITLE "Symphony #8 (9), D944 - IV - Finale: Allegro vivace"
    PERFORMER "Bruno Weil, The Classical Band"
    ISRC USSM11005311
    INDEX 00 13:35:27
FILE "06 - Symphony #8 (9), D944 - IV - Finale- Allegro vivace.wav" WAVE
    INDEX 01 00:00:00
-



Показать сообщения:    

Текущее время: 09-Дек 06:58

Часовой пояс: UTC + 3


Вы не можете начинать темы
Вы не можете отвечать на сообщения
Вы не можете редактировать свои сообщения
Вы не можете удалять свои сообщения
Вы не можете голосовать в опросах
Вы не можете прикреплять файлы к сообщениям
Вы не можете скачивать файлы