(Classical) Franz Schubert — Symphonies № 3 & 4 (D 200 & 417) (Igor Markevitch) — 2004, FLAC (tracks+.cue) lossless


 

[Цитировать]

Symphonies № 3 & 4 (D 200 & 417)-
Жанр: Classical
Страна-производитель диска: Германия
Издатель (лейбл): Deutsche Grammophon
Номер по каталогу: 474 985-2
Год издания диска: 2004
Год записи фонограммы: 26.02.1954, 28.02.1954, Jesus-Christus-Kirche, Berlin-Dahlem
Композитор: Franz Peter Schubert
Исполнительский коллектив: Berliner Philharmoniker under Igor Markevitch
Аудио кодек: flac
Тип рипа: tracks+.cue
Битрейт аудио: lossless
Продолжительность: 00h49'14"
Источник: web
Наличие сканов в содержимом раздачи: нет-Треклист:
(01-04) Symphony № 3 D-Dur D 200 [22'06"]
(05-08) Symphony № 4 c-moll D 417 «Tragische» [27'07"]-

EAC log

Exact Audio Copy V1.0 beta 3 from 29. August 2011
EAC extraction logfile from 27. July 2014, 16:44
Igor Markevitch, Berliner Philharmoniker / Franz Schubert: Symphonies Nr.3&4
Used drive  : Optiarc DVD RW AD-7203S   Adapter: 1  ID: 1
Read mode               : Secure
Utilize accurate stream : Yes
Defeat audio cache      : Yes
Make use of C2 pointers : No
Read offset correction                      : 48
Overread into Lead-In and Lead-Out          : No
Fill up missing offset samples with silence : Yes
Delete leading and trailing silent blocks   : No
Null samples used in CRC calculations       : Yes
Used interface                              : Native Win32 interface for Win NT & 2000
Gap handling                                : Appended to previous track
Used output format              : User Defined Encoder
Selected bitrate                : 192 kBit/s
Quality                         : High
Add ID3 tag                     : No
Command line compressor         : C:\Program Files (x86)\flac-1.3.0\flac.exe
Additional command line options : -T "artist=%artist%" -T "title=%title%" -T "album=%albumtitle%" -T "date=%year%" -T "tracknumber=%tracknr%" -T "genre=%genre%" -T "comment=%comment%" -T "composer=%composer%" -8 %source%
TOC of the extracted CD
     Track |   Start  |  Length  | Start sector | End sector
    ---------------------------------------------------------
        1  |  0:00.00 |  7:59.46 |         0    |    35970
        2  |  7:59.46 |  3:35.49 |     35971    |    52144
        3  | 11:35.20 |  3:33.65 |     52145    |    68184
        4  | 15:09.10 |  6:57.09 |     68185    |    99468
        5  | 22:06.19 |  7:30.54 |     99469    |   133272
        6  | 29:36.73 |  9:28.24 |    133273    |   175896
        7  | 39:05.22 |  2:43.20 |    175897    |   188141
        8  | 41:48.42 |  7:25.03 |    188142    |   221519
Track  1
     Filename H:\EAC NEW Rips\01 - Schubert, Symphonie Nr. 3 D-dur D200 - I. Adagio maestoso - Allegro con brio.wav
     Pre-gap length  0:00:02.00
     Peak level 94.6 %
     Extraction speed 2.6 X
     Track quality 100.0 %
     Test CRC 1167016E
     Copy CRC 1167016E
     Accurately ripped (confidence 2)  [21675353]  (AR v2)
     Copy OK
Track  2
     Filename H:\EAC NEW Rips\02 - Schubert, Symphonie Nr. 3 D-dur D200 - II. Allegretto.wav
     Peak level 65.3 %
     Extraction speed 2.7 X
     Track quality 100.0 %
     Test CRC EEE0FC75
     Copy CRC EEE0FC75
     Accurately ripped (confidence 2)  [F6F19748]  (AR v2)
     Copy OK
Track  3
     Filename H:\EAC NEW Rips\03 - Schubert, Symphonie Nr. 3 D-dur D200 - III. Menuetto. Vivace - Trio.wav
     Peak level 87.9 %
     Extraction speed 2.9 X
     Track quality 100.0 %
     Test CRC 6136000B
     Copy CRC 6136000B
     Accurately ripped (confidence 2)  [9F5BCDE5]  (AR v2)
     Copy OK
Track  4
     Filename H:\EAC NEW Rips\04 - Schubert, Symphonie Nr. 3 D-dur D200 - IV. Presto vivace.wav
     Peak level 87.0 %
     Extraction speed 3.5 X
     Track quality 100.0 %
     Test CRC 373A01E0
     Copy CRC 373A01E0
     Accurately ripped (confidence 2)  [39303350]  (AR v2)
     Copy OK
Track  5
     Filename H:\EAC NEW Rips\05 - Schubert, Symphonie Nr. 4 c-moll 'Tragische' D417 - I. Poco sostenuto - Vivace.wav
     Pre-gap length  0:00:06.64
     Peak level 99.6 %
     Extraction speed 3.8 X
     Track quality 100.0 %
     Test CRC 8D551679
     Copy CRC 8D551679
     Accurately ripped (confidence 2)  [EC4F1835]  (AR v2)
     Copy OK
Track  6
     Filename H:\EAC NEW Rips\06 - Schubert, Symphonie Nr. 4 c-moll 'Tragische' D417 - II. Allegretto.wav
     Peak level 71.9 %
     Extraction speed 4.2 X
     Track quality 100.0 %
     Test CRC AF7FF977
     Copy CRC AF7FF977
     Accurately ripped (confidence 2)  [09F574AC]  (AR v2)
     Copy OK
Track  7
     Filename H:\EAC NEW Rips\07 - Schubert, Symphonie Nr. 4 c-moll 'Tragische' D417 - III. Presto.wav
     Peak level 82.3 %
     Extraction speed 3.8 X
     Track quality 100.0 %
     Test CRC CF1C69B2
     Copy CRC CF1C69B2
     Accurately ripped (confidence 2)  [FDC8D6CB]  (AR v2)
     Copy OK
Track  8
     Filename H:\EAC NEW Rips\08 - Schubert, Symphonie Nr. 4 c-moll 'Tragische' D417 - IV. Allegro con brio.wav
     Peak level 92.9 %
     Extraction speed 4.6 X
     Track quality 100.0 %
     Test CRC 82B707D0
     Copy CRC 82B707D0
     Accurately ripped (confidence 2)  [B2D1720E]  (AR v2)
     Copy OK
All tracks accurately ripped
No errors occurred
End of status report
---- CUETools DB Plugin V2.1.3
[CTDB TOCID: dMNx5lL4Evf_GsnVy_9NoTIBRaE-] found, Submit result: dMNx5lL4Evf_GsnVy_9NoTIBRaE- has been confirmed
[3dd8efb5] (6/6) Accurately ripped
==== Log checksum 2F55B9893AFAA6DC5F67011FEBA816252CDEBC815E8B4FECBB7B74D6DEB07A30 ====

-

CUE

REM GENRE Classical
REM DATE 2004
REM DISCID 6D0B8908
REM COMMENT "ExactAudioCopy v1.0b3"
CATALOG 0028947498520
PERFORMER "Igor Markevitch, Berliner Philharmoniker"
TITLE "Franz Schubert: Symphonies Nr.3&4"
FILE "01 - Schubert, Symphonie Nr. 3 D-dur D200 - I. Adagio maestoso - Allegro con brio.wav" WAVE
  TRACK 01 AUDIO
    TITLE "Schubert, Symphonie Nr. 3 D-dur D200 - I. Adagio maestoso - Allegro con brio"
    PERFORMER "Igor Markevitch, Berliner Philharmoniker"
    ISRC DEF055402541
    INDEX 01 00:00:00
FILE "02 - Schubert, Symphonie Nr. 3 D-dur D200 - II. Allegretto.wav" WAVE
  TRACK 02 AUDIO
    TITLE "Schubert, Symphonie Nr. 3 D-dur D200 - II. Allegretto"
    PERFORMER "Igor Markevitch, Berliner Philharmoniker"
    ISRC DEF055402542
    INDEX 01 00:00:00
FILE "03 - Schubert, Symphonie Nr. 3 D-dur D200 - III. Menuetto. Vivace - Trio.wav" WAVE
  TRACK 03 AUDIO
    TITLE "Schubert, Symphonie Nr. 3 D-dur D200 - III. Menuetto. Vivace - Trio"
    PERFORMER "Igor Markevitch, Berliner Philharmoniker"
    ISRC DEF055402543
    INDEX 01 00:00:00
FILE "04 - Schubert, Symphonie Nr. 3 D-dur D200 - IV. Presto vivace.wav" WAVE
  TRACK 04 AUDIO
    TITLE "Schubert, Symphonie Nr. 3 D-dur D200 - IV. Presto vivace"
    PERFORMER "Igor Markevitch, Berliner Philharmoniker"
    ISRC DEF055402544
    INDEX 01 00:00:00
  TRACK 05 AUDIO
    TITLE "Schubert, Symphonie Nr. 4 c-moll 'Tragische' D417 - I. Poco sostenuto - Vivace"
    PERFORMER "Igor Markevitch, Berliner Philharmoniker"
    ISRC DEF055402551
    INDEX 00 06:50:20
FILE "05 - Schubert, Symphonie Nr. 4 c-moll 'Tragische' D417 - I. Poco sostenuto - Vivace.wav" WAVE
    INDEX 01 00:00:00
FILE "06 - Schubert, Symphonie Nr. 4 c-moll 'Tragische' D417 - II. Allegretto.wav" WAVE
  TRACK 06 AUDIO
    TITLE "Schubert, Symphonie Nr. 4 c-moll 'Tragische' D417 - II. Allegretto"
    PERFORMER "Igor Markevitch, Berliner Philharmoniker"
    ISRC DEF055402552
    INDEX 01 00:00:00
FILE "07 - Schubert, Symphonie Nr. 4 c-moll 'Tragische' D417 - III. Presto.wav" WAVE
  TRACK 07 AUDIO
    TITLE "Schubert, Symphonie Nr. 4 c-moll 'Tragische' D417 - III. Presto"
    PERFORMER "Igor Markevitch, Berliner Philharmoniker"
    ISRC DEF055402553
    INDEX 01 00:00:00
FILE "08 - Schubert, Symphonie Nr. 4 c-moll 'Tragische' D417 - IV. Allegro con brio.wav" WAVE
  TRACK 08 AUDIO
    TITLE "Schubert, Symphonie Nr. 4 c-moll 'Tragische' D417 - IV. Allegro con brio"
    PERFORMER "Igor Markevitch, Berliner Philharmoniker"
    ISRC DEF055402554
    INDEX 01 00:00:00
-



Показать сообщения:    

Текущее время: 10-Дек 21:35

Часовой пояс: UTC + 3


Вы не можете начинать темы
Вы не можете отвечать на сообщения
Вы не можете редактировать свои сообщения
Вы не можете удалять свои сообщения
Вы не можете голосовать в опросах
Вы не можете прикреплять файлы к сообщениям
Вы не можете скачивать файлы