(Classical) Franz Schubert — Symphonies № 5 & 8 (D 485 & 759) (Roger Norrington) — 1990, FLAC (tracks+.cue) lossless


 

[Цитировать]

Symphonies № 5 & 8 (D 485 & 759)-
Жанр: Classical
Страна-производитель диска: Великобритания
Издатель (лейбл): EMI Classics
Номер по каталогу: CDC 549968
Год издания диска: September, 25, 1990
Год записи фонограммы: 03.1989
Композитор: Franz Peter Schubert
Исполнительский коллектив: The London Classical Players under Sir Roger Norrington
Аудио кодек: flac
Тип рипа: tracks+.cue
Битрейт аудио: lossless
Продолжительность: 00h49'22"
Источник: web
Наличие сканов в содержимом раздачи: нет-Треклист:
(01-04) Symphony № 5 B-Dur D 485 [27'07"]
(05-06) Symphony № 8 h-moll D 759 «Unfinished» [22'15"]-

EAC log

Exact Audio Copy V1.0 beta 3 from 29. August 2011
EAC extraction logfile from 12. February 2014, 10:36
Franz Schubert; Roger Norrington; The London Classical Players / Symphony No.5, Symphony No.8 "Unfinished"
Used drive  : TSSTcorpDVD+-RW TS-L633C   Adapter: 0  ID: 1
Read mode               : Secure
Utilize accurate stream : Yes
Defeat audio cache      : Yes
Make use of C2 pointers : No
Read offset correction                      : 6
Overread into Lead-In and Lead-Out          : No
Fill up missing offset samples with silence : Yes
Delete leading and trailing silent blocks   : No
Null samples used in CRC calculations       : Yes
Used interface                              : Native Win32 interface for Win NT & 2000
Gap handling                                : Appended to next track
Used output format              : User Defined Encoder
Selected bitrate                : 1024 kBit/s
Quality                         : High
Add ID3 tag                     : No
Command line compressor         : C:\Program Files (x86)\Exact Audio Copy\FLAC\FLAC.EXE
Additional command line options : -8 -V -T "ARTIST=%artist%" -T "TITLE=%title%" -T "ALBUM=%albumtitle%" -T "DATE=%year%" -T "TRACKNUMBER=%tracknr%" -T "GENRE=%genre%" -T "PERFORMER=%albuminterpret%" -T "COMPOSER=%composer%" %haslyrics%--tag-from-file=LYRICS="%lyricsfile%"%haslyrics% -T "ALBUMARTIST=%albumartist%" -T "DISCNUMBER=%cdnumber%" -T "TOTALDISCS=%totalcds%" -T "TOTALTRACKS=%numtracks%" -T "COMMENT=%comment%" %source% -o %dest%
TOC of the extracted CD
     Track |   Start  |  Length  | Start sector | End sector
    ---------------------------------------------------------
        1  |  0:00.32 |  6:25.58 |        32    |    28964
        2  |  6:26.15 |  7:47.50 |     28965    |    64039
        3  | 14:13.65 |  5:23.72 |     64040    |    88336
        4  | 19:37.62 |  7:47.40 |     88337    |   123401
        5  | 27:25.27 | 12:46.18 |    123402    |   180869
        6  | 40:11.45 |  9:10.65 |    180870    |   222184
Track  1
     Filename F:\Music\Brahms, Johannes - London Classical Players; Norrington - Schubert 5 and 8 [FLAC]\01 - Symphony No. 5 in B flat minor, D. 485 - I Allegro.wav
     Pre-gap length  0:00:02.42
     Peak level 44.0 %
     Extraction speed 3.2 X
     Track quality 100.0 %
     Test CRC 02A3658E
     Copy CRC 02A3658E
     Accurately ripped (confidence 2)  [8E6A5188]  (AR v2)
     Copy OK
Track  2
     Filename F:\Music\Brahms, Johannes - London Classical Players; Norrington - Schubert 5 and 8 [FLAC]\02 - Symphony No. 5 in B flat minor, D. 485 - II Andante con moto.wav
     Pre-gap length  0:00:00.04
     Peak level 39.3 %
     Extraction speed 3.7 X
     Track quality 100.0 %
     Test CRC B071FC2B
     Copy CRC B071FC2B
     Accurately ripped (confidence 2)  [D2BBED56]  (AR v2)
     Copy OK
Track  3
     Filename F:\Music\Brahms, Johannes - London Classical Players; Norrington - Schubert 5 and 8 [FLAC]\03 - Symphony No. 5 in B flat minor, D. 485 - III Menuetto-  Allegro molto.wav
     Pre-gap length  0:00:00.05
     Peak level 44.0 %
     Extraction speed 3.9 X
     Track quality 100.0 %
     Test CRC E39F333B
     Copy CRC E39F333B
     Accurately ripped (confidence 2)  [1FBB2E9C]  (AR v2)
     Copy OK
Track  4
     Filename F:\Music\Brahms, Johannes - London Classical Players; Norrington - Schubert 5 and 8 [FLAC]\04 - Symphony No. 5 in B flat minor, D. 485 - IV Allegro vivace.wav
     Pre-gap length  0:00:00.02
     Peak level 49.1 %
     Extraction speed 3.9 X
     Track quality 99.9 %
     Test CRC E4DCA490
     Copy CRC E4DCA490
     Accurately ripped (confidence 2)  [7AC6E879]  (AR v2)
     Copy OK
Track  5
     Filename F:\Music\Brahms, Johannes - London Classical Players; Norrington - Schubert 5 and 8 [FLAC]\05 - Symphony No. 8 in B minor, D. 759, ''Unfinished'' - I Allegro moderato.wav
     Pre-gap length  0:00:18.36
     Peak level 97.7 %
     Extraction speed 4.9 X
     Track quality 100.0 %
     Test CRC 6998C2B9
     Copy CRC 6998C2B9
     Accurately ripped (confidence 2)  [D6A95710]  (AR v2)
     Copy OK
Track  6
     Filename F:\Music\Brahms, Johannes - London Classical Players; Norrington - Schubert 5 and 8 [FLAC]\06 - Symphony No. 8 in B minor, D. 759, ''Unfinished'' - II Andante con moto.wav
     Pre-gap length  0:00:00.04
     Peak level 86.6 %
     Extraction speed 5.3 X
     Track quality 100.0 %
     Test CRC DC5BDF40
     Copy CRC DC5BDF40
     Accurately ripped (confidence 2)  [68D1CF04]  (AR v2)
     Copy OK
All tracks accurately ripped
No errors occurred
End of status report
---- CUETools DB Plugin V2.1.3
[CTDB TOCID: mpXbe.BlxF5R7YW2hN7L_RDM5_Q-] disk not present in database, Submit result: discs with pregaps not supported in this protocol version
==== Log checksum B84329D5AF5491C698E3F44ABCF5B5E1E700D447B6E19DA3E14ECDCC72B40E67 ====

-

CUE

REM GENRE Classical
REM DATE 1990
REM DISCID 550B9206
REM COMMENT "ExactAudioCopy v1.0b3"
CATALOG 0000000000000
PERFORMER "Franz Schubert; Roger Norrington; The London Classical Players"
TITLE "Symphony No.5, Symphony No.8 'Unfinished'"
FILE "01 - Symphony No. 5 in B flat minor, D. 485 - I Allegro.wav" WAVE
  TRACK 01 AUDIO
    TITLE "Symphony No. 5 in B flat minor, D. 485 - I Allegro"
    PERFORMER "Franz Schubert; Roger Norrington; The London Classical Players"
    ISRC 000000000000
    PREGAP 00:00:32
    INDEX 01 00:00:00
  TRACK 02 AUDIO
    TITLE "Symphony No. 5 in B flat minor, D. 485 - II Andante con moto"
    PERFORMER "Franz Schubert; Roger Norrington; The London Classical Players"
    ISRC 000000000000
    INDEX 00 06:25:55
FILE "02 - Symphony No. 5 in B flat minor, D. 485 - II Andante con moto.wav" WAVE
    INDEX 01 00:00:00
  TRACK 03 AUDIO
    TITLE "Symphony No. 5 in B flat minor, D. 485 - III Menuetto:  Allegro molto"
    PERFORMER "Franz Schubert; Roger Norrington; The London Classical Players"
    ISRC 000000000000
    INDEX 00 07:47:46
FILE "03 - Symphony No. 5 in B flat minor, D. 485 - III Menuetto-  Allegro molto.wav" WAVE
    INDEX 01 00:00:00
  TRACK 04 AUDIO
    TITLE "Symphony No. 5 in B flat minor, D. 485 - IV Allegro vivace"
    PERFORMER "Franz Schubert; Roger Norrington; The London Classical Players"
    ISRC 000000000000
    INDEX 00 05:23:70
FILE "04 - Symphony No. 5 in B flat minor, D. 485 - IV Allegro vivace.wav" WAVE
    INDEX 01 00:00:00
  TRACK 05 AUDIO
    TITLE "Symphony No. 8 in B minor, D. 759, 'Unfinished' - I Allegro moderato"
    PERFORMER "Franz Schubert; Roger Norrington; The London Classical Players"
    ISRC 000000000000
    INDEX 00 07:29:13
FILE "05 - Symphony No. 8 in B minor, D. 759, ''Unfinished'' - I Allegro moderato.wav" WAVE
    INDEX 01 00:00:00
  TRACK 06 AUDIO
    TITLE "Symphony No. 8 in B minor, D. 759, 'Unfinished' - II Andante con moto"
    PERFORMER "Franz Schubert; Roger Norrington; The London Classical Players"
    ISRC 000000000000
    INDEX 00 12:46:15
FILE "06 - Symphony No. 8 in B minor, D. 759, ''Unfinished'' - II Andante con moto.wav" WAVE
    INDEX 01 00:00:00
-



Показать сообщения:    

Текущее время: 04-Дек 09:05

Часовой пояс: UTC + 3


Вы не можете начинать темы
Вы не можете отвечать на сообщения
Вы не можете редактировать свои сообщения
Вы не можете удалять свои сообщения
Вы не можете голосовать в опросах
Вы не можете прикреплять файлы к сообщениям
Вы не можете скачивать файлы