(Classical) Ludwig van Beethoven & Franz Schubert — Symphonies № 5 & 8 (Op 67 & D 759) (Leonard Bernstein) — 1985, FLAC (tracks+.cue) lossless


 

[Цитировать]

Symphonies № 5 & 8 (Op 67 & D 759)-
Жанр: Classical
Страна-производитель диска: США
Издатель (лейбл): CBS Records Masterworks
Номер по каталогу: MYK 36719
Год издания диска: 1985
Год записи фонограммы: 27.03.1963, Avery Fisher Hall (Lincoln Center for the Performing Arts) in Manhattan, New York
Композиторы: Ludwig van Beethoven / Franz Peter Schubert
Исполнительский коллектив: The New York Philharmonic Orchestra under Leonard Bernstein
Аудио кодек: flac
Тип рипа: tracks+.cue
Битрейт аудио: lossless
Продолжительность: 00h57'25"
Источник: web
Наличие сканов в содержимом раздачи: нет-Треклист:
Ludwig van Beethoven
(01-03) Symphony № 5 c-moll Op 67 [31'30"]-Franz Schubert
(04-05) Symphony № 8 h-moll D 759 «Unfinished» [25'55"]-

XLD log

X Lossless Decoder version 20120226 (139.1)
XLD extraction logfile from 2012-03-14 09:26:13 -0500
Various Artists / Beethoven: Symphony No.5 Schubert: Symphony No. 8 "Unfinished" (New York Philharmonic feat. conductor: Leonard Bernstein)
Used drive : MATSHITA DVD-R   UJ-875 (revision DB09)
Ripper mode             : XLD Secure Ripper
Disable audio cache     : OK for the drive with a cache less than 1375KiB
Make use of C2 pointers : NO
Read offset correction  : 102
Max retry count         : 20
Gap status              : Analyzed, Appended
TOC of the extracted CD
     Track |   Start  |  Length  | Start sector | End sector
    ---------------------------------------------------------
        1  | 00:00:00 | 06:58:72 |         0    |    31421
        2  | 06:58:72 | 10:10:63 |     31422    |    77234
        3  | 17:09:60 | 14:20:52 |     77235    |   141786
        4  | 31:30:37 | 13:54:40 |    141787    |   204376
        5  | 45:25:02 | 12:00:13 |    204377    |   258389
List of alternate offset correction values
        #  | Absolute | Relative | Confidence
    ------------------------------------------
        1  |    389   |    287   |      5
        2  |    267   |    165   |      2
        3  |    117   |     15   |      2
        4  |    732   |    630   |      2
AccurateRip Summary
    Track 01 : OK (confidence 2, with different offset)
    Track 02 : OK (confidence 2, with different offset)
    Track 03 : OK (confidence 2, with different offset)
    Track 04 : OK (confidence 5, with different offset)
    Track 05 : OK (confidence 5, with different offset)
        ->All tracks accurately ripped.
All Tracks
    Album gain             : 0.83 dB
    Peak                   : 0.809692
    Statistics
        Read error                           : 0
        Jitter error (maybe fixed)           : 0
        Retry sector count                   : 0
        Damaged sector count                 : 0
Track 01
    Filename : /Volumes/SAMPLES/Library Rips/Various Artists - Beethoven- Symphony No.5 Schubert- Symphony No. 8 "Unfinished" (New York Philharmonic feat. conductor- Leonard Bernstein) (1985) [FLAC-CD]/01 Symphony No. 5 in C minor, Op. 67пјљ I. Allegro con brio.flac
    Pre-gap length : 00:02:00
    Track gain             : 0.13 dB
    Peak                   : 0.611603
    CRC32 hash (test run)  : A900F75B
    CRC32 hash             : A900F75B
    CRC32 hash (skip zero) : 5C8A4059
    AccurateRip signature  : 9EAF361E
        ->Accurately ripped! (confidence 2)
          (matched with the different offset correction value;
           calculated using an additional offset of 15;
           the signature after correction is: D4CE78CD)
    Statistics
        Read error                           : 0
        Jitter error (maybe fixed)           : 0
        Retry sector count                   : 0
        Damaged sector count                 : 0
Track 02
    Filename : /Volumes/SAMPLES/Library Rips/Various Artists - Beethoven- Symphony No.5 Schubert- Symphony No. 8 "Unfinished" (New York Philharmonic feat. conductor- Leonard Bernstein) (1985) [FLAC-CD]/02 Symphony No. 5 in C minor, Op. 67пјљ II. Andante con moto.flac
    Pre-gap length : 00:02:55
    Track gain             : 2.34 dB
    Peak                   : 0.589111
    CRC32 hash (test run)  : 129BBCCB
    CRC32 hash             : 129BBCCB
    CRC32 hash (skip zero) : C3481E33
    AccurateRip signature  : 6DB07C88
        ->Accurately ripped! (confidence 2)
          (matched with the different offset correction value;
           calculated using an additional offset of 15;
           the signature after correction is: 7B75707E)
    Statistics
        Read error                           : 0
        Jitter error (maybe fixed)           : 0
        Retry sector count                   : 0
        Damaged sector count                 : 0
Track 03
    Filename : /Volumes/SAMPLES/Library Rips/Various Artists - Beethoven- Symphony No.5 Schubert- Symphony No. 8 "Unfinished" (New York Philharmonic feat. conductor- Leonard Bernstein) (1985) [FLAC-CD]/03 Symphony No. 5 in C minor, Op. 67пјљ III. Scherzo. Allegro пјЏ IV. Allegro.flac
    Pre-gap length : 00:02:63
    Track gain             : 0.05 dB
    Peak                   : 0.656036
    CRC32 hash (test run)  : 6E7A0FFF
    CRC32 hash             : 6E7A0FFF
    CRC32 hash (skip zero) : 1E50DF6E
    AccurateRip signature  : B44A5135
        ->Accurately ripped! (confidence 2)
          (matched with the different offset correction value;
           calculated using an additional offset of 15;
           the signature after correction is: 3639FB3D)
    Statistics
        Read error                           : 0
        Jitter error (maybe fixed)           : 0
        Retry sector count                   : 0
        Damaged sector count                 : 0
Track 04
    Filename : /Volumes/SAMPLES/Library Rips/Various Artists - Beethoven- Symphony No.5 Schubert- Symphony No. 8 "Unfinished" (New York Philharmonic feat. conductor- Leonard Bernstein) (1985) [FLAC-CD]/04 Symphony No. 8 in B minor, "Unfinished"пјљ I. Allegro moderato.flac
    Pre-gap length : 00:03:67
    Track gain             : 0.75 dB
    Peak                   : 0.809692
    CRC32 hash (test run)  : EB8ED8C7
    CRC32 hash             : EB8ED8C7
    CRC32 hash (skip zero) : BDDA9DC9
    AccurateRip signature  : C9EA6081
        ->Accurately ripped! (confidence 5)
          (matched with the different offset correction value;
           calculated using an additional offset of 287;
           the signature after correction is: BC039C07)
    Statistics
        Read error                           : 0
        Jitter error (maybe fixed)           : 0
        Retry sector count                   : 0
        Damaged sector count                 : 0
Track 05
    Filename : /Volumes/SAMPLES/Library Rips/Various Artists - Beethoven- Symphony No.5 Schubert- Symphony No. 8 "Unfinished" (New York Philharmonic feat. conductor- Leonard Bernstein) (1985) [FLAC-CD]/05 Symphony No. 8 in B minor, "Unfinished"пјљ II. Andante con moto.flac
    Pre-gap length : 00:02:70
    Track gain             : 2.54 dB
    Peak                   : 0.616272
    CRC32 hash (test run)  : D980FDA3
    CRC32 hash             : D980FDA3
    CRC32 hash (skip zero) : 0256ED6B
    AccurateRip signature  : AAAF273A
        ->Accurately ripped! (confidence 5)
          (matched with the different offset correction value;
           calculated using an additional offset of 287;
           the signature after correction is: 492059D7)
    Statistics
        Read error                           : 0
        Jitter error (maybe fixed)           : 0
        Retry sector count                   : 0
        Damaged sector count                 : 0
No errors occurred
End of status report

-

CUE

TITLE "Beethoven: Symphony No.5 Schubert: Symphony No. 8 "Unfinished" (New York Philharmonic feat. conductor: Leonard Bernstein)"
PERFORMER "Various Artists"
REM DATE "1987"
REM DISCID 330D7505
REM REPLAYGAIN_ALBUM_GAIN 0.83 dB
REM REPLAYGAIN_ALBUM_PEAK 0.809692
FILE "01 Symphony No. 5 in C minor, Op. 67пјљ I. Allegro con brio.flac" WAVE
  TRACK 01 AUDIO
    TITLE "Symphony No. 5 in C minor, Op. 67: I. Allegro con brio"
    PERFORMER "Ludwig van Beethoven"
    SONGWRITER "Ludwig van Beethoven"
    REM REPLAYGAIN_TRACK_GAIN 0.13 dB
    REM REPLAYGAIN_TRACK_PEAK 0.611603
    INDEX 01 00:00:00
  TRACK 02 AUDIO
    TITLE "Symphony No. 5 in C minor, Op. 67: II. Andante con moto"
    PERFORMER "Ludwig van Beethoven"
    SONGWRITER "Ludwig van Beethoven"
    REM REPLAYGAIN_TRACK_GAIN 2.34 dB
    REM REPLAYGAIN_TRACK_PEAK 0.589111
    INDEX 00 06:56:17
FILE "02 Symphony No. 5 in C minor, Op. 67пјљ II. Andante con moto.flac" WAVE
    INDEX 01 00:00:00
  TRACK 03 AUDIO
    TITLE "Symphony No. 5 in C minor, Op. 67: III. Scherzo. Allegro / IV. Allegro"
    PERFORMER "Ludwig van Beethoven"
    SONGWRITER "Ludwig van Beethoven"
    REM REPLAYGAIN_TRACK_GAIN 0.05 dB
    REM REPLAYGAIN_TRACK_PEAK 0.656036
    INDEX 00 10:08:00
FILE "03 Symphony No. 5 in C minor, Op. 67пјљ III. Scherzo. Allegro пјЏ IV. Allegro.flac" WAVE
    INDEX 01 00:00:00
  TRACK 04 AUDIO
    TITLE "Symphony No. 8 in B minor, "Unfinished": I. Allegro moderato"
    PERFORMER "Franz Schubert"
    SONGWRITER "Franz Schubert"
    REM REPLAYGAIN_TRACK_GAIN 0.75 dB
    REM REPLAYGAIN_TRACK_PEAK 0.809692
    INDEX 00 14:16:60
FILE "04 Symphony No. 8 in B minor, "Unfinished"пјљ I. Allegro moderato.flac" WAVE
    INDEX 01 00:00:00
  TRACK 05 AUDIO
    TITLE "Symphony No. 8 in B minor, "Unfinished": II. Andante con moto"
    PERFORMER "Franz Schubert"
    SONGWRITER "Franz Schubert"
    REM REPLAYGAIN_TRACK_GAIN 2.54 dB
    REM REPLAYGAIN_TRACK_PEAK 0.616272
    INDEX 00 13:51:45
FILE "05 Symphony No. 8 in B minor, "Unfinished"пјљ II. Andante con moto.flac" WAVE
    INDEX 01 00:00:00
-



Показать сообщения:    

Текущее время: 10-Дек 19:35

Часовой пояс: UTC + 3


Вы не можете начинать темы
Вы не можете отвечать на сообщения
Вы не можете редактировать свои сообщения
Вы не можете удалять свои сообщения
Вы не можете голосовать в опросах
Вы не можете прикреплять файлы к сообщениям
Вы не можете скачивать файлы