(Classical) Franz Schubert — Symphonies № 5 & 6 (D 485 & 589) (Bruno Weil) — 1991, FLAC (tracks+.cue) lossless


 

[Цитировать]

Symphonies № 5 & 6 (D 485 & 589)-
Жанр: Classical
Страна-производитель диска: США
Издатель (лейбл): Sony Classical
Номер по каталогу: SNYC 46697
Год издания диска: November, 1, 1991
Год записи фонограммы: 07.02.1991-09.02.1991, The Performing Arts Center, Purchase College, New-York
Композитор: Franz Peter Schubert
Исполнительский коллектив: Classical Band under Bruno Weil
Аудио кодек: flac
Тип рипа: tracks+.cue
Битрейт аудио: lossless
Продолжительность: 00h56'13"
Источник: web
Наличие сканов в содержимом раздачи: нет-Треклист:
(01-04) Symphony № 5 B-Dur D 485 [24'40"]
(05-08) Symphony № 6 C-Dur D 589 [31'34"]-

EAC log

Exact Audio Copy V1.0 beta 3 from 29. August 2011
EAC extraction logfile from 6. September 2013, 1:13
Symphonies No.5 & No. 6 / Bruno Weil
Used drive  : PLEXTOR CD-R   PX-W2410A   Adapter: 2  ID: 0
Read mode               : Secure
Utilize accurate stream : Yes
Defeat audio cache      : Yes
Make use of C2 pointers : No
Read offset correction                      : 98
Overread into Lead-In and Lead-Out          : No
Fill up missing offset samples with silence : Yes
Delete leading and trailing silent blocks   : No
Null samples used in CRC calculations       : Yes
Used interface                              : Native Win32 interface for Win NT & 2000
Gap handling                                : Appended to previous track
Used output format              : User Defined Encoder
Selected bitrate                : 1024 kBit/s
Quality                         : High
Add ID3 tag                     : No
Command line compressor         : C:\Program Files (x86)\Exact Audio Copy\Flac\flac.exe
Additional command line options : -8 -V -T "ARTIST=%artist%" -T "TITLE=%title%" -T "ALBUM=%albumtitle%" -T "DATE=%year%" -T "TRACKNUMBER=%tracknr%" -T "GENRE=%genre%" -T "PERFORMER=%albuminterpret%" -T "COMPOSER=%composer%" %haslyrics%--tag-from-file=LYRICS="%lyricsfile%"%haslyrics% -T "ALBUMARTIST=%albumartist%" -T "DISCNUMBER=%cdnumber%" -T "TOTALDISCS=%totalcds%" -T "TOTALTRACKS=%numtracks%" -T "COMMENT=%comment%" %source% -o %dest%
TOC of the extracted CD
     Track |   Start  |  Length  | Start sector | End sector
    ---------------------------------------------------------
        1  |  0:00.00 |  6:50.12 |         0    |    30761
        2  |  6:50.12 |  7:48.13 |     30762    |    65874
        3  | 14:38.25 |  4:20.50 |     65875    |    85424
        4  | 18:59.00 |  5:40.50 |     85425    |   110974
        5  | 24:39.50 |  9:20.12 |    110975    |   152986
        6  | 33:59.62 |  7:13.15 |    152987    |   185476
        7  | 41:13.02 |  6:10.58 |    185477    |   213284
        8  | 47:23.60 |  8:49.40 |    213285    |   252999
Track  1
     Filename D:\My Documents\My Music\Bruno Weil & The Classical Band - 1991 - Schubert, Symphonies No.5&6 [FLAC]\01 - Symphony No.5 in B-flat major D485 - Allegro.wav
     Pre-gap length  0:00:02.00
     Peak level 78.3 %
     Extraction speed 7.0 X
     Track quality 100.0 %
     Test CRC 60E3FF93
     Copy CRC 60E3FF93
     Accurately ripped (confidence 2)  [594C31BA]  (AR v2)
     Copy OK
Track  2
     Filename D:\My Documents\My Music\Bruno Weil & The Classical Band - 1991 - Schubert, Symphonies No.5&6 [FLAC]\02 - Andante con moto.wav
     Peak level 48.2 %
     Extraction speed 8.3 X
     Track quality 100.0 %
     Test CRC 6A445240
     Copy CRC 6A445240
     Accurately ripped (confidence 2)  [935D4F2E]  (AR v2)
     Copy OK
Track  3
     Filename D:\My Documents\My Music\Bruno Weil & The Classical Band - 1991 - Schubert, Symphonies No.5&6 [FLAC]\03 - Minuetto. Allegro molto - Trio.wav
     Peak level 76.2 %
     Extraction speed 8.9 X
     Track quality 100.0 %
     Test CRC CE7D0DEA
     Copy CRC CE7D0DEA
     Accurately ripped (confidence 2)  [FA673AB2]  (AR v2)
     Copy OK
Track  4
     Filename D:\My Documents\My Music\Bruno Weil & The Classical Band - 1991 - Schubert, Symphonies No.5&6 [FLAC]\04 - Allegro vivace.wav
     Peak level 68.7 %
     Extraction speed 9.7 X
     Track quality 100.0 %
     Test CRC 231FC610
     Copy CRC 231FC610
     Accurately ripped (confidence 2)  [B50656AB]  (AR v2)
     Copy OK
Track  5
     Filename D:\My Documents\My Music\Bruno Weil & The Classical Band - 1991 - Schubert, Symphonies No.5&6 [FLAC]\05 - Symphony No.6 in C major D589 - Adagio, Allegro.wav
     Pre-gap length  0:00:08.97
     Peak level 99.2 %
     Extraction speed 10.5 X
     Track quality 100.0 %
     Test CRC 049C27E4
     Copy CRC 049C27E4
     Accurately ripped (confidence 2)  [AB8809AA]  (AR v2)
     Copy OK
Track  6
     Filename D:\My Documents\My Music\Bruno Weil & The Classical Band - 1991 - Schubert, Symphonies No.5&6 [FLAC]\06 - Andante.wav
     Peak level 82.9 %
     Extraction speed 11.5 X
     Track quality 100.0 %
     Test CRC DBC0DAE7
     Copy CRC DBC0DAE7
     Accurately ripped (confidence 2)  [DEB66B4E]  (AR v2)
     Copy OK
Track  7
     Filename D:\My Documents\My Music\Bruno Weil & The Classical Band - 1991 - Schubert, Symphonies No.5&6 [FLAC]\07 - Scherzo. Presto-Piu' lento.wav
     Peak level 85.1 %
     Extraction speed 11.7 X
     Track quality 100.0 %
     Test CRC 5A8272C8
     Copy CRC 5A8272C8
     Accurately ripped (confidence 2)  [AF044576]  (AR v2)
     Copy OK
Track  8
     Filename D:\My Documents\My Music\Bruno Weil & The Classical Band - 1991 - Schubert, Symphonies No.5&6 [FLAC]\08 - Allegro moderato.wav
     Peak level 94.3 %
     Extraction speed 10.4 X
     Track quality 99.9 %
     Test CRC 89DBE141
     Copy CRC 89DBE141
     Accurately ripped (confidence 2)  [1A58568A]  (AR v2)
     Copy OK
All tracks accurately ripped
No errors occurred
End of status report
==== Log checksum 51366E52E58F9AC5D2B267B2FD023C4B376CE3A871A6E6A228EFC83BED4C57D1 ====

-

CUE

REM GENRE Classical
REM DATE 1991
REM DISCID 5A0D2D08
REM COMMENT "ExactAudioCopy v1.0b3"
PERFORMER "Symphonies No.5 & No. 6"
TITLE "Bruno Weil"
FILE "01 - Symphony No.5 in B-flat major D485 - Allegro.wav" WAVE
  TRACK 01 AUDIO
    TITLE "Symphony No.5 in B-flat major D485 - Allegro"
    PERFORMER "Symphonies No.5 & No. 6"
    INDEX 01 00:00:00
FILE "02 - Andante con moto.wav" WAVE
  TRACK 02 AUDIO
    TITLE "Andante con moto"
    PERFORMER "Symphonies No.5 & No. 6"
    INDEX 01 00:00:00
FILE "03 - Minuetto. Allegro molto - Trio.wav" WAVE
  TRACK 03 AUDIO
    TITLE "Minuetto. Allegro molto - Trio"
    PERFORMER "Symphonies No.5 & No. 6"
    INDEX 01 00:00:00
FILE "04 - Allegro vivace.wav" WAVE
  TRACK 04 AUDIO
    TITLE "Allegro vivace"
    PERFORMER "Symphonies No.5 & No. 6"
    INDEX 01 00:00:00
  TRACK 05 AUDIO
    TITLE "Symphony No.6 in C major D589 - Adagio, Allegro"
    PERFORMER "Symphonies No.5 & No. 6"
    INDEX 00 05:31:52
FILE "05 - Symphony No.6 in C major D589 - Adagio, Allegro.wav" WAVE
    INDEX 01 00:00:00
FILE "06 - Andante.wav" WAVE
  TRACK 06 AUDIO
    TITLE "Andante"
    PERFORMER "Symphonies No.5 & No. 6"
    INDEX 01 00:00:00
FILE "07 - Scherzo. Presto-Piu' lento.wav" WAVE
  TRACK 07 AUDIO
    TITLE "Scherzo. Presto-Piu' lento"
    PERFORMER "Symphonies No.5 & No. 6"
    INDEX 01 00:00:00
FILE "08 - Allegro moderato.wav" WAVE
  TRACK 08 AUDIO
    TITLE "Allegro moderato"
    PERFORMER "Symphonies No.5 & No. 6"
    INDEX 01 00:00:00
-



Показать сообщения:    

Текущее время: 07-Дек 13:34

Часовой пояс: UTC + 3


Вы не можете начинать темы
Вы не можете отвечать на сообщения
Вы не можете редактировать свои сообщения
Вы не можете удалять свои сообщения
Вы не можете голосовать в опросах
Вы не можете прикреплять файлы к сообщениям
Вы не можете скачивать файлы