(Classical) Franz Schubert — Symphonies № 8 & 9 (D 759 & 944) (Karl Bohm) — 1995, FLAC (tracks+.cue) lossless


 

[Цитировать]

Symphonies № 8 & 9 (D 759 & 944)-
Жанр: Classical
Страна-производитель диска: Германия
Издатель (лейбл): Deutsche Grammophon
ASIN: B000025WVC
Год издания диска: November, 13, 1995
Годы записи фонограмм: 1966 & 06.1963, Jesus Christ Church, Berlin, Germany
Композитор: Franz Peter Schubert
Исполнительский коллектив: Berlin Philharmonic Orchestra under Karl Böhm
Аудио кодек: flac
Тип рипа: tracks+.cue
Битрейт аудио: lossless
Продолжительность: 01h14'12"
Источник: web
Наличие сканов в содержимом раздачи: нет-Треклист:
(01-02) Symphony № 8 h-moll D 759 «Unfinished» [23'12"]
(03-06) Symphony № 9 C-Dur D 944 «The Great» [51'00"]-

EAC log

Exact Audio Copy V1.0 beta 3 from 29. August 2011
EAC extraction logfile from 23. July 2013, 21:17
Berlin Philharmonic, Karl Bohm / Symphonies Nos. 8 Unfinished & 9
Used drive  : ATAPI   iHAS524   D   Adapter: 6  ID: 0
Read mode               : Secure
Utilize accurate stream : Yes
Defeat audio cache      : Yes
Make use of C2 pointers : No
Read offset correction                      : 6
Overread into Lead-In and Lead-Out          : No
Fill up missing offset samples with silence : Yes
Delete leading and trailing silent blocks   : No
Null samples used in CRC calculations       : Yes
Used interface                              : Native Win32 interface for Win NT & 2000
Gap handling                                : Appended to previous track
Used output format              : User Defined Encoder
Selected bitrate                : 1024 kBit/s
Quality                         : High
Add ID3 tag                     : No
Command line compressor         : C:\Program Files (x86)\Exact Audio Copy\FLAC\FLAC.EXE
Additional command line options : -8 -V -T "ARTIST=%artist%" -T "TITLE=%title%" -T "ALBUM=%albumtitle%" -T "DATE=%year%" -T "TRACKNUMBER=%tracknr%" -T "GENRE=%genre%" -T "PERFORMER=%albuminterpret%" -T "COMPOSER=%composer%" %haslyrics%--tag-from-file=LYRICS="%lyricsfile%"%haslyrics% -T "ALBUMARTIST=%albumartist%" -T "DISCNUMBER=%cdnumber%" -T "TOTALDISCS=%totalcds%" -T "TOTALTRACKS=%numtracks%" -T "COMMENT=%comment%" %source% -o %dest%
TOC of the extracted CD
     Track |   Start  |  Length  | Start sector | End sector
    ---------------------------------------------------------
        1  |  0:00.33 | 11:32.50 |        33    |    51982
        2  | 11:33.08 | 11:39.25 |     51983    |   104432
        3  | 23:12.33 | 14:23.20 |    104433    |   169177
        4  | 37:35.53 | 13:53.30 |    169178    |   231682
        5  | 51:29.08 | 11:18.12 |    231683    |   282544
        6  | 62:47.20 | 11:25.38 |    282545    |   333957
Track  1
     Filename N:\Rips\Schubert - Symphonies Nos. 8 Unfinished & 9 (1966) [FLAC]\01 - Symphonie No. 8 H-moll, D 759 ''Unvollendete''- I. Allegro moderato.wav
     Pre-gap length  0:00:02.44
     Peak level 93.7 %
     Extraction speed 2.5 X
     Track quality 100.0 %
     Test CRC 8E73E87E
     Copy CRC 8E73E87E
     Accurately ripped (confidence 2)  [E789A6A5]  (AR v1)
     Copy OK
Track  2
     Filename N:\Rips\Schubert - Symphonies Nos. 8 Unfinished & 9 (1966) [FLAC]\02 - Symphonie No. 8 H-moll, D 759 ''Unvollendete''- II. Andante con moto.wav
     Pre-gap length  0:00:02.00
     Peak level 82.3 %
     Extraction speed 3.0 X
     Track quality 100.0 %
     Test CRC 5D7C0878
     Copy CRC 5D7C0878
     Accurately ripped (confidence 2)  [EF78B0D1]  (AR v1)
     Copy OK
Track  3
     Filename N:\Rips\Schubert - Symphonies Nos. 8 Unfinished & 9 (1966) [FLAC]\03 - Symphonie No. 9 C-dur, D 944- I. Andante - Allegro ma non troppo.wav
     Pre-gap length  0:00:10.33
     Peak level 81.4 %
     Extraction speed 3.6 X
     Track quality 100.0 %
     Test CRC 0669DABE
     Copy CRC 0669DABE
     Accurately ripped (confidence 2)  [2164A147]  (AR v1)
     Copy OK
Track  4
     Filename N:\Rips\Schubert - Symphonies Nos. 8 Unfinished & 9 (1966) [FLAC]\04 - Symphonie No. 9 C-dur, D 944- II. Andante con moto.wav
     Pre-gap length  0:00:02.00
     Peak level 87.3 %
     Extraction speed 4.1 X
     Track quality 100.0 %
     Test CRC BC56926D
     Copy CRC BC56926D
     Accurately ripped (confidence 2)  [B523474E]  (AR v1)
     Copy OK
Track  5
     Filename N:\Rips\Schubert - Symphonies Nos. 8 Unfinished & 9 (1966) [FLAC]\05 - Symphonie No. 9 C-dur, D 944- III. Scherzo. Allegro vivace.wav
     Pre-gap length  0:00:02.00
     Peak level 73.7 %
     Extraction speed 4.4 X
     Track quality 100.0 %
     Test CRC EBA0FBA7
     Copy CRC EBA0FBA7
     Accurately ripped (confidence 2)  [401FA597]  (AR v1)
     Copy OK
Track  6
     Filename N:\Rips\Schubert - Symphonies Nos. 8 Unfinished & 9 (1966) [FLAC]\06 - Symphonie No. 9 C-dur, D 944- IV. Allegro vivace.wav
     Pre-gap length  0:01:20.12
     Peak level 87.4 %
     Extraction speed 4.7 X
     Track quality 100.0 %
     Test CRC 36C6355B
     Copy CRC 36C6355B
     Accurately ripped (confidence 2)  [85ABEBE4]  (AR v1)
     Copy OK
All tracks accurately ripped
No errors occurred
End of status report
---- CUETools DB Plugin V2.1.4
[CTDB TOCID: iRjMHq4cCK25rlk2DAztZbhqmKI-] disk not present in database
Submit result: iRjMHq4cCK25rlk2DAztZbhqmKI- has been uploaded
==== Log checksum FECB90E48AB390392ACE951CED8F0A66BE73EDAE72B40972F5B2815C88DE715B ====

-

CUE

REM GENRE Classical
REM DATE 1966
REM DISCID 5D116406
REM COMMENT "ExactAudioCopy v1.0b3"
CATALOG 0028941932228
PERFORMER "Berlin Philharmonic, Karl Bohm"
TITLE "Symphonies Nos. 8 'Unfinished & 9"
FILE "01 - Symphonie No. 8 H-moll, D 759 ''Unvollendete''- I. Allegro moderato.wav" WAVE
  TRACK 01 AUDIO
    TITLE "Symphonie No. 8 H-moll, D 759 'Unvollendete': I. Allegro moderato"
    PERFORMER "Berlin Philharmonic, Karl Bohm"
    ISRC DEF056600020
    PREGAP 00:00:33
    INDEX 01 00:00:00
  TRACK 02 AUDIO
    TITLE "Symphonie No. 8 H-moll, D 759 'Unvollendete': II. Andante con moto"
    PERFORMER "Berlin Philharmonic, Karl Bohm"
    ISRC DEF056600020
    INDEX 00 11:30:50
FILE "02 - Symphonie No. 8 H-moll, D 759 ''Unvollendete''- II. Andante con moto.wav" WAVE
    INDEX 01 00:00:00
  TRACK 03 AUDIO
    TITLE "Symphonie No. 9 C-dur, D 944: I. Andante - Allegro ma non troppo"
    PERFORMER "Berlin Philharmonic, Karl Bohm"
    ISRC DEF056300010
    INDEX 00 11:29:00
FILE "03 - Symphonie No. 9 C-dur, D 944- I. Andante - Allegro ma non troppo.wav" WAVE
    INDEX 01 00:00:00
  TRACK 04 AUDIO
    TITLE "Symphonie No. 9 C-dur, D 944: II. Andante con moto"
    PERFORMER "Berlin Philharmonic, Karl Bohm"
    ISRC DEF056300010
    INDEX 00 14:21:20
FILE "04 - Symphonie No. 9 C-dur, D 944- II. Andante con moto.wav" WAVE
    INDEX 01 00:00:00
  TRACK 05 AUDIO
    TITLE "Symphonie No. 9 C-dur, D 944: III. Scherzo. Allegro vivace"
    PERFORMER "Berlin Philharmonic, Karl Bohm"
    ISRC DEF056300010
    INDEX 00 13:51:30
FILE "05 - Symphonie No. 9 C-dur, D 944- III. Scherzo. Allegro vivace.wav" WAVE
    INDEX 01 00:00:00
  TRACK 06 AUDIO
    TITLE "Symphonie No. 9 C-dur, D 944: IV. Allegro vivace"
    PERFORMER "Berlin Philharmonic, Karl Bohm"
    ISRC DEF056300010
    INDEX 00 09:58:03
FILE "06 - Symphonie No. 9 C-dur, D 944- IV. Allegro vivace.wav" WAVE
    INDEX 01 00:00:00
-



Показать сообщения:    

Текущее время: 11-Дек 11:06

Часовой пояс: UTC + 3


Вы не можете начинать темы
Вы не можете отвечать на сообщения
Вы не можете редактировать свои сообщения
Вы не можете удалять свои сообщения
Вы не можете голосовать в опросах
Вы не можете прикреплять файлы к сообщениям
Вы не можете скачивать файлы