(Classical) Franz Schubert — Symphonies № 3 & 6 (D 200 & 589) (Michael Halasz) — 1994, FLAC (tracks+.cue) lossless


 

[Цитировать]

Symphonies № 3 & 6 (D 200 & 589)-
Жанр: Classical
Страна-производитель диска: Германия
Издатель (лейбл): Naxos
Номер по каталогу: 8.553094
Год издания диска: October, 24, 1994
Год записи фонограммы: 03.1994, Italian Institute, Budapest
Композитор: Franz Peter Schubert
Исполнительский коллектив: Failoni Orchestra under Michael Halász
Аудио кодек: flac
Тип рипа: tracks+.cue
Битрейт аудио: lossless
Продолжительность: 00h59'55"
Источник: web
Наличие сканов в содержимом раздачи: нет-Треклист:
(01-04) Symphony № 3 D-Dur D 200 [25'10"]
(05-08) Symphony № 6 C-Dur D 589 [34'45"]-

EAC log

Exact Audio Copy V1.0 beta 3 from 29. August 2011
EAC extraction logfile from 7. July 2013, 13:57
Failoni Orchestra, Michael Halasz / Symphonies Nos. 3 and 6
Used drive  : ATAPI   iHAS524   D   Adapter: 4  ID: 0
Read mode               : Secure
Utilize accurate stream : Yes
Defeat audio cache      : Yes
Make use of C2 pointers : No
Read offset correction                      : 6
Overread into Lead-In and Lead-Out          : No
Fill up missing offset samples with silence : Yes
Delete leading and trailing silent blocks   : No
Null samples used in CRC calculations       : Yes
Used interface                              : Native Win32 interface for Win NT & 2000
Gap handling                                : Appended to previous track
Used output format              : User Defined Encoder
Selected bitrate                : 1024 kBit/s
Quality                         : High
Add ID3 tag                     : No
Command line compressor         : C:\Program Files (x86)\Exact Audio Copy\FLAC\FLAC.EXE
Additional command line options : -8 -V -T "ARTIST=%artist%" -T "TITLE=%title%" -T "ALBUM=%albumtitle%" -T "DATE=%year%" -T "TRACKNUMBER=%tracknr%" -T "GENRE=%genre%" -T "PERFORMER=%albuminterpret%" -T "COMPOSER=%composer%" %haslyrics%--tag-from-file=LYRICS="%lyricsfile%"%haslyrics% -T "ALBUMARTIST=%albumartist%" -T "DISCNUMBER=%cdnumber%" -T "TOTALDISCS=%totalcds%" -T "TOTALTRACKS=%numtracks%" -T "COMMENT=%comment%" %source% -o %dest%
TOC of the extracted CD
     Track |   Start  |  Length  | Start sector | End sector
    ---------------------------------------------------------
        1  |  0:00.32 |  9:35.03 |        32    |    43159
        2  |  9:35.35 |  4:19.02 |     43160    |    62586
        3  | 13:54.37 |  4:10.53 |     62587    |    81389
        4  | 18:05.15 |  7:05.35 |     81390    |   113299
        5  | 25:10.50 |  9:45.52 |    113300    |   157226
        6  | 34:56.27 |  8:21.08 |    157227    |   194809
        7  | 43:17.35 |  6:27.12 |    194810    |   223846
        8  | 49:44.47 | 10:10.60 |    223847    |   269656
Track  1
     Filename N:\Rips\Schubert - Symphonies Nos. 3 and 6 (1994) [FLAC]\01 - Symphony No. 3 in D major, D 200- I. Adagio maestoso - Allegro.wav
     Pre-gap length  0:00:02.42
     Peak level 97.0 %
     Extraction speed 3.9 X
     Track quality 99.9 %
     Test CRC 4F374E39
     Copy CRC 4F374E39
     Accurately ripped (confidence 5)  [27B4EE51]  (AR v1)
     Copy OK
Track  2
     Filename N:\Rips\Schubert - Symphonies Nos. 3 and 6 (1994) [FLAC]\02 - Symphony No. 3 in D major, D 200- II. Allegretto.wav
     Peak level 33.5 %
     Extraction speed 4.6 X
     Track quality 100.0 %
     Test CRC 6F59630D
     Copy CRC 6F59630D
     Accurately ripped (confidence 5)  [4A81CB8A]  (AR v1)
     Copy OK
Track  3
     Filename N:\Rips\Schubert - Symphonies Nos. 3 and 6 (1994) [FLAC]\03 - Symphony No. 3 in D major, D 200- III. Menuetto- Vivace.wav
     Peak level 77.1 %
     Extraction speed 4.9 X
     Track quality 100.0 %
     Test CRC 3AF98366
     Copy CRC 3AF98366
     Accurately ripped (confidence 5)  [F4E82C36]  (AR v1)
     Copy OK
Track  4
     Filename N:\Rips\Schubert - Symphonies Nos. 3 and 6 (1994) [FLAC]\04 - Symphony No. 3 in D major, D 200- IV. Presto vivace.wav
     Peak level 94.2 %
     Extraction speed 5.6 X
     Track quality 100.0 %
     Test CRC AA76C69E
     Copy CRC AA76C69E
     Accurately ripped (confidence 5)  [A559342B]  (AR v1)
     Copy OK
Track  5
     Filename N:\Rips\Schubert - Symphonies Nos. 3 and 6 (1994) [FLAC]\05 - Symphony No. 6 in C major, D 589- I. Adagio - Allegro.wav
     Pre-gap length  0:00:04.00
     Peak level 83.2 %
     Extraction speed 6.3 X
     Track quality 100.0 %
     Test CRC C1AB0AB4
     Copy CRC C1AB0AB4
     Accurately ripped (confidence 5)  [D3DCCBC2]  (AR v1)
     Copy OK
Track  6
     Filename N:\Rips\Schubert - Symphonies Nos. 3 and 6 (1994) [FLAC]\06 - Symphony No. 6 in C major, D 589- II. Andante.wav
     Pre-gap length  0:00:01.29
     Peak level 61.6 %
     Extraction speed 6.8 X
     Track quality 100.0 %
     Test CRC 5D18529D
     Copy CRC 5D18529D
     Accurately ripped (confidence 5)  [ACE19061]  (AR v1)
     Copy OK
Track  7
     Filename N:\Rips\Schubert - Symphonies Nos. 3 and 6 (1994) [FLAC]\07 - Symphony No. 6 in C major, D 589- III. Scherzo. Presto.wav
     Pre-gap length  0:00:01.24
     Peak level 61.6 %
     Extraction speed 7.1 X
     Track quality 100.0 %
     Test CRC C37428C6
     Copy CRC C37428C6
     Accurately ripped (confidence 5)  [0735A22B]  (AR v1)
     Copy OK
Track  8
     Filename N:\Rips\Schubert - Symphonies Nos. 3 and 6 (1994) [FLAC]\08 - Symphony No. 6 in C major, D 589- IV. Allegro moderato.wav
     Peak level 86.0 %
     Extraction speed 7.8 X
     Track quality 100.0 %
     Test CRC 9AA56339
     Copy CRC 9AA56339
     Accurately ripped (confidence 5)  [68CA514B]  (AR v1)
     Copy OK
All tracks accurately ripped
No errors occurred
End of status report
---- CUETools DB Plugin V2.1.4
[CTDB TOCID: ubCQmo2R.vFR2xzgM0f_tLRZpz4-] disk not present in database
Submit result: ubCQmo2R.vFR2xzgM0f_tLRZpz4- has been uploaded
==== Log checksum A3CC8D9712E186EE84824259D1010AD87A63371192C2D318F4561742B4D50E84 ====

-

CUE

REM GENRE Classical
REM DATE 1994
REM DISCID 840E0B08
REM COMMENT "ExactAudioCopy v1.0b3"
CATALOG 0000000000000
PERFORMER "Failoni Orchestra, Michael Halasz"
TITLE "Symphonies Nos. 3 and 6"
FILE "01 - Symphony No. 3 in D major, D 200- I. Adagio maestoso - Allegro.wav" WAVE
  TRACK 01 AUDIO
    TITLE "Symphony No. 3 in D major, D 200: I. Adagio maestoso - Allegro"
    PERFORMER "Failoni Orchestra, Michael Halasz"
    PREGAP 00:00:32
    INDEX 01 00:00:00
FILE "02 - Symphony No. 3 in D major, D 200- II. Allegretto.wav" WAVE
  TRACK 02 AUDIO
    TITLE "Symphony No. 3 in D major, D 200: II. Allegretto"
    PERFORMER "Failoni Orchestra, Michael Halasz"
    INDEX 01 00:00:00
FILE "03 - Symphony No. 3 in D major, D 200- III. Menuetto- Vivace.wav" WAVE
  TRACK 03 AUDIO
    TITLE "Symphony No. 3 in D major, D 200: III. Menuetto: Vivace"
    PERFORMER "Failoni Orchestra, Michael Halasz"
    INDEX 01 00:00:00
FILE "04 - Symphony No. 3 in D major, D 200- IV. Presto vivace.wav" WAVE
  TRACK 04 AUDIO
    TITLE "Symphony No. 3 in D major, D 200: IV. Presto vivace"
    PERFORMER "Failoni Orchestra, Michael Halasz"
    INDEX 01 00:00:00
  TRACK 05 AUDIO
    TITLE "Symphony No. 6 in C major, D 589: I. Adagio - Allegro"
    PERFORMER "Failoni Orchestra, Michael Halasz"
    INDEX 00 07:01:35
FILE "05 - Symphony No. 6 in C major, D 589- I. Adagio - Allegro.wav" WAVE
    INDEX 01 00:00:00
  TRACK 06 AUDIO
    TITLE "Symphony No. 6 in C major, D 589: II. Andante"
    PERFORMER "Failoni Orchestra, Michael Halasz"
    INDEX 00 09:44:30
FILE "06 - Symphony No. 6 in C major, D 589- II. Andante.wav" WAVE
    INDEX 01 00:00:00
  TRACK 07 AUDIO
    TITLE "Symphony No. 6 in C major, D 589: III. Scherzo. Presto"
    PERFORMER "Failoni Orchestra, Michael Halasz"
    INDEX 00 08:19:65
FILE "07 - Symphony No. 6 in C major, D 589- III. Scherzo. Presto.wav" WAVE
    INDEX 01 00:00:00
FILE "08 - Symphony No. 6 in C major, D 589- IV. Allegro moderato.wav" WAVE
  TRACK 08 AUDIO
    TITLE "Symphony No. 6 in C major, D 589: IV. Allegro moderato"
    PERFORMER "Failoni Orchestra, Michael Halasz"
    INDEX 01 00:00:00
-



Показать сообщения:    

Текущее время: 06-Дек 11:10

Часовой пояс: UTC + 3


Вы не можете начинать темы
Вы не можете отвечать на сообщения
Вы не можете редактировать свои сообщения
Вы не можете удалять свои сообщения
Вы не можете голосовать в опросах
Вы не можете прикреплять файлы к сообщениям
Вы не можете скачивать файлы