(Classical) Franz Schubert — Symphonies № 5, 8 & 9 (D 485, 759 & 944) • Rosamunde (D 797 Op 26) (Charles Mackerras) — 2000, FLAC (tracks) lossless


 

[Цитировать]

Symphonies № 5, 8 & 9 (D 485, 759 & 944) • Rosamunde (D 797 Op 26)-
Жанр: Classical
Страна-производитель дисков: Франция
Издатель (лейбл): Virgin veritas
Номер по каталогу: VBD5 61806 2
Год издания дисков: October, 10, 2000
Годы записи фонограмм: 11.1990 (CD1), 10.1987 (CD2), EMI Abbey Road Studios, London
Композитор: Franz Peter Schubert
Исполнительский коллектив: Orchestra of the Age of Enlightenment under Sir Charles Mackerras
Аудио кодек: flac
Тип рипа: tracks
Битрейт аудио: lossless
Продолжительность: 02h13'43"
Источник: web
Наличие сканов в содержимом раздачи: нет-Треклист:
CD1 [01h14'09"]
(01-04) Symphony № 5 B-Dur D 485 [28'57"]
(05-08) Symphony № 8 h-moll D 759 «Unfinished» (completed by Brian Newbould) [38'18"]
(09) Rosamunde, Fürstin von Cypern, incidental music, D 797 Op 26: Ballet Music № 02 G-Dur [06'54"]
CD2 [00h59'34"]
(01-04) Symphony № 9 C-Dur D 944 «The Great» [59'34"]-

CUETools logs


-

CD1

[CUETools log; Date: 10.01.2016 23:20:14; Version: 2.1.5]
[CTDB TOCID: zVXlK6A61nkWzJZBhZQPnldnfAw-] found.
Track | CTDB Status
  1   | (9/9) Accurately ripped
  2   | (9/9) Accurately ripped
  3   | (9/9) Accurately ripped
  4   | (9/9) Accurately ripped
  5   | (9/9) Accurately ripped
  6   | (9/9) Accurately ripped
  7   | (9/9) Accurately ripped
  8   | (9/9) Accurately ripped
  9   | (9/9) Accurately ripped
[AccurateRip ID: 0019632a-00bc302b-7e116109] found.
Track   [  CRC   |   V2   ] Status
01     [2a3e8104|4cda8112] (00+00/33) No match
02     [86335a56|926f327f] (00+00/33) No match
03     [96b57916|d103190e] (00+00/33) No match
04     [b24f4149|cebdaa43] (00+00/33) No match
05     [adc4b083|3ef20d9d] (00+00/32) No match
06     [05990060|4dbfc172] (00+00/33) No match
07     [210468c3|f393bc39] (00+00/33) No match
08     [083ff533|4976779f] (00+00/32) No match
09     [a6e06402|78a0f137] (00+00/32) No match
Offsetted by 670:
01     [90da33e3] (04/33) Accurately ripped
02     [9d00f4d7] (04/33) Accurately ripped
03     [c102900f] (04/33) Accurately ripped
04     [b7f7da5f] (04/33) Accurately ripped
05     [802b201b] (04/32) Accurately ripped
06     [c9600245] (04/33) Accurately ripped
07     [0cd883eb] (04/33) Accurately ripped
08     [4afebfe3] (04/32) Accurately ripped
09     [2d4ada5e] (04/32) Accurately ripped
Offsetted by 676:
01     [57216f0a] (08/33) Accurately ripped
02     [3b3a52e2] (08/33) Accurately ripped
03     [50f90d9e] (08/33) Accurately ripped
04     [76d92901] (08/33) Accurately ripped
05     [e39bdaf7] (07/32) Accurately ripped
06     [c7c1183f] (08/33) Accurately ripped
07     [df554003] (08/33) Accurately ripped
08     [183f588e] (07/32) Accurately ripped
09     [d1523036] (07/32) Accurately ripped
Track Peak [ CRC32  ] [W/O NULL]
--  100,0 [20FA3CE1] [48D2E120]
01   91,8 [3F7AF602] [5C200AA7]
02   73,0 [7394E4F3] [40FEFFC9]
03   89,4 [19AE6D7F] [3DACE1FC]
04   80,5 [3661545C] [CEF36133]
05  100,0 [21C5B985] [A90B2957]
06   94,4 [02045CBC] [92E4E7F4]
07  100,0 [478C3385] [68D69391]
08  100,0 [80870041] [1DCDAA53]
09   98,0 [D78EC210] [26793276]

-

CD2

[CUETools log; Date: 10.01.2016 23:24:45; Version: 2.1.5]
[CTDB TOCID: 9ikSzkfHyGX7Ta09O02MbUgR73c-] found.
Track | CTDB Status
  1   | (9/9) Accurately ripped
  2   | (9/9) Accurately ripped
  3   | (9/9) Accurately ripped
  4   | (9/9) Accurately ripped
[AccurateRip ID: 000a57f4-00291cbd-350df504] found.
Track   [  CRC   |   V2   ] Status
01     [9b7cc029|d1c740c1] (00+00/35) No match
02     [6a84bf7a|20fc9d8a] (00+00/35) No match
03     [0f855efa|b9d22aba] (00+00/35) No match
04     [e1de4987|70a26908] (00+00/35) No match
Offsetted by 670:
01     [1b1438b8] (04/35) Accurately ripped
02     [e77ea3ba] (04/35) Accurately ripped
03     [23ff3223] (04/35) Accurately ripped
04     [85f52a7f] (04/35) Accurately ripped
Offsetted by 676:
01     [0074c4de] (09/35) Accurately ripped
02     [dcfb2e2d] (09/35) Accurately ripped
03     [86d4c32f] (09/35) Accurately ripped
04     [19ef3142] (09/35) Accurately ripped
Track Peak [ CRC32  ] [W/O NULL]
--   98,6 [DD40CC9D] [F76EA83E]
01   97,2 [503B32E4] [730A5D4C]
02   98,6 [17A7B7F0] [7545EC78]
03   66,4 [DBA68A56] [B90A8797]
04   98,3 [5EB84F2A] [92E23D0E]

-
-



Показать сообщения:    

Текущее время: 07-Дек 23:11

Часовой пояс: UTC + 3


Вы не можете начинать темы
Вы не можете отвечать на сообщения
Вы не можете редактировать свои сообщения
Вы не можете удалять свои сообщения
Вы не можете голосовать в опросах
Вы не можете прикреплять файлы к сообщениям
Вы не можете скачивать файлы