(Classical) Ludwig van Beethoven — Piano Concertos № 1 & 2 (Op 15 & 19) (Yefim Bronfman, David Zinman) — 2007, FLAC (tracks+.cue) lossless


Статистика раздачи [Обновить пиров]
Размер:  222 MB   |    Зарегистрирован:  1 год   |    Скачан:  0 раз

Полного источника не было: Никогда

Личеров:  5  [  0 KB/s  ]   Подробная статистика пиров
 
   
 
 
 

[Цитировать]

Piano Concertos № 1 & 2 (Op 15 & 19)- Жанр: Classical
Страна-производитель диска: Германия
Издатель (лейбл): Arte Nova Classics
Номер по каталогу: ANO 825870
Год издания диска: March, 13, 2007
Год записи фонограммы: October, 06 (Op 15) & 07 (Op 19), 2005, Zurich
Композитор: Ludwig van Beethoven
Исполнительский коллектив: Tonhalle Orchestra Zurich under David Zinman, Yefim Bronfman (Piano)
Аудио кодек: flac
Тип рипа: tracks+.cue
Битрейт аудио: lossless
Продолжительность: 01h06'59"
Источник: web
Наличие сканов в содержимом раздачи: нет-Треклист:
(01-03) Piano Concerto № 1 C-Dur Op 15 [37'44"]
(04-06) Piano Concerto № 2 B-Dur Op 19 [29'15"]-

XLD log

X Lossless Decoder version 20141129a (148.2)
XLD extraction logfile from 2015-10-11 20:31:22 -0700
Yefim Bronfman with Tonhalle Orchestra Zurich / Piano Concertos Nos. 1 & 2
Used drive : HL-DT-ST DVDRW  GS21N (revision SA17)
Media type : Pressed CD
Ripper mode             : XLD Secure Ripper
Disable audio cache     : OK for the drive with a cache less than 1375KiB
Make use of C2 pointers : NO
Read offset correction  : 667
Max retry count         : 100
Gap status              : Analyzed, Appended (except HTOA)
TOC of the extracted CD
     Track |   Start  |  Length  | Start sector | End sector
    ---------------------------------------------------------
        1  | 00:00:00 | 18:08:52 |         0    |    81651
        2  | 18:08:52 | 10:38:10 |     81652    |   129511
        3  | 28:46:62 | 08:57:39 |    129512    |   169825
        4  | 37:44:26 | 14:14:40 |    169826    |   233915
        5  | 51:58:66 | 08:50:23 |    233916    |   273688
        6  | 60:49:14 | 06:09:61 |    273689    |   301424
List of alternate offset correction values
        #  | Absolute | Relative | Confidence
    ------------------------------------------
        1  |    685   |     18   |     77
        2  |    595   |    -72   |      5
        3  |    643   |    -24   |      3
        4  |    697   |     30   |      2
AccurateRip Summary (DiscID: 00122884-005de282-430fb306)
    Track 01 : OK (v1+v2, confidence 15/99)
    Track 02 : OK (v1+v2, confidence 15/101)
    Track 03 : OK (v1+v2, confidence 15/100)
    Track 04 : OK (v1+v2, confidence 15/102)
    Track 05 : OK (v1+v2, confidence 15/101)
    Track 06 : OK (v1+v2, confidence 15/99)
        ->All tracks accurately ripped.
All Tracks
    Album gain               : 2.97 dB
    Peak                     : 0.960205
    Statistics
        Read error                           : 0
        Jitter error (maybe fixed)           : 0
        Retry sector count                   : 0
        Damaged sector count                 : 0
Track 01
    Filename : /Users/Shared/Yefim Bronfman with Tonhalle Orchestra Zurich - Piano Concertos Nos. 1 & 2 [MP3 320]/01 Op. 15 - 1. Allegro con brio.mp3
               /Users/Shared/Yefim Bronfman with Tonhalle Orchestra Zurich - Piano Concertos Nos. 1 & 2 [MP3 V0]/01 Op. 15 - 1. Allegro con brio.mp3
               /Users/Shared/Yefim Bronfman with Tonhalle Orchestra Zurich - Piano Concertos Nos. 1 & 2 [MP3 V2]/01 Op. 15 - 1. Allegro con brio.mp3
               /Users/Shared/Yefim Bronfman with Tonhalle Orchestra Zurich - Piano Concertos Nos. 1 & 2 [FLAC]/01 Op. 15 - 1. Allegro con brio.flac
    Pre-gap length : 00:02:00
    Track gain               : 0.90 dB
    Peak                     : 0.960205
    CRC32 hash (test run)    : 01C0CB5C
    CRC32 hash               : 01C0CB5C
    CRC32 hash (skip zero)   : 380CDA6B
    AccurateRip v1 signature : 6C913F7F
    AccurateRip v2 signature : B6935FA9
        ->Accurately ripped (v1+v2, confidence 6+9/99)
    Statistics
        Read error                           : 0
        Jitter error (maybe fixed)           : 0
        Retry sector count                   : 0
        Damaged sector count                 : 0
Track 02
    Filename : /Users/Shared/Yefim Bronfman with Tonhalle Orchestra Zurich - Piano Concertos Nos. 1 & 2 [MP3 320]/02 Op. 15 - 2. Largo.mp3
               /Users/Shared/Yefim Bronfman with Tonhalle Orchestra Zurich - Piano Concertos Nos. 1 & 2 [MP3 V0]/02 Op. 15 - 2. Largo.mp3
               /Users/Shared/Yefim Bronfman with Tonhalle Orchestra Zurich - Piano Concertos Nos. 1 & 2 [MP3 V2]/02 Op. 15 - 2. Largo.mp3
               /Users/Shared/Yefim Bronfman with Tonhalle Orchestra Zurich - Piano Concertos Nos. 1 & 2 [FLAC]/02 Op. 15 - 2. Largo.flac
    Pre-gap length : 00:04:58
    Track gain               : 5.74 dB
    Peak                     : 0.535248
    CRC32 hash (test run)    : 3C43268F
    CRC32 hash               : 3C43268F
    CRC32 hash (skip zero)   : F7B9C335
    AccurateRip v1 signature : 732A9D04
    AccurateRip v2 signature : 1C3C4F85
        ->Accurately ripped (v1+v2, confidence 6+9/101)
    Statistics
        Read error                           : 0
        Jitter error (maybe fixed)           : 0
        Retry sector count                   : 0
        Damaged sector count                 : 0
Track 03
    Filename : /Users/Shared/Yefim Bronfman with Tonhalle Orchestra Zurich - Piano Concertos Nos. 1 & 2 [MP3 320]/03 Op. 15 - 3. Rondo - Allegro scherzando.mp3
               /Users/Shared/Yefim Bronfman with Tonhalle Orchestra Zurich - Piano Concertos Nos. 1 & 2 [MP3 V0]/03 Op. 15 - 3. Rondo - Allegro scherzando.mp3
               /Users/Shared/Yefim Bronfman with Tonhalle Orchestra Zurich - Piano Concertos Nos. 1 & 2 [MP3 V2]/03 Op. 15 - 3. Rondo - Allegro scherzando.mp3
               /Users/Shared/Yefim Bronfman with Tonhalle Orchestra Zurich - Piano Concertos Nos. 1 & 2 [FLAC]/03 Op. 15 - 3. Rondo - Allegro scherzando.flac
    Pre-gap length : 00:01:58
    Track gain               : 2.74 dB
    Peak                     : 0.936218
    CRC32 hash (test run)    : E5C870CE
    CRC32 hash               : E5C870CE
    CRC32 hash (skip zero)   : DFEC7D0C
    AccurateRip v1 signature : 1B664DF7
    AccurateRip v2 signature : AB73E86C
        ->Accurately ripped (v1+v2, confidence 6+9/100)
    Statistics
        Read error                           : 0
        Jitter error (maybe fixed)           : 0
        Retry sector count                   : 0
        Damaged sector count                 : 0
Track 04
    Filename : /Users/Shared/Yefim Bronfman with Tonhalle Orchestra Zurich - Piano Concertos Nos. 1 & 2 [MP3 320]/04 Op. 19 - 1. Allegro con brio.mp3
               /Users/Shared/Yefim Bronfman with Tonhalle Orchestra Zurich - Piano Concertos Nos. 1 & 2 [MP3 V0]/04 Op. 19 - 1. Allegro con brio.mp3
               /Users/Shared/Yefim Bronfman with Tonhalle Orchestra Zurich - Piano Concertos Nos. 1 & 2 [MP3 V2]/04 Op. 19 - 1. Allegro con brio.mp3
               /Users/Shared/Yefim Bronfman with Tonhalle Orchestra Zurich - Piano Concertos Nos. 1 & 2 [FLAC]/04 Op. 19 - 1. Allegro con brio.flac
    Pre-gap length : 00:08:58
    Track gain               : 3.90 dB
    Peak                     : 0.669617
    CRC32 hash (test run)    : 0D50E0A4
    CRC32 hash               : 0D50E0A4
    CRC32 hash (skip zero)   : F500848F
    AccurateRip v1 signature : FFB2FA44
    AccurateRip v2 signature : 25901FE5
        ->Accurately ripped (v1+v2, confidence 6+9/102)
    Statistics
        Read error                           : 0
        Jitter error (maybe fixed)           : 0
        Retry sector count                   : 0
        Damaged sector count                 : 0
Track 05
    Filename : /Users/Shared/Yefim Bronfman with Tonhalle Orchestra Zurich - Piano Concertos Nos. 1 & 2 [MP3 320]/05 Op. 19 - 2. Adagio.mp3
               /Users/Shared/Yefim Bronfman with Tonhalle Orchestra Zurich - Piano Concertos Nos. 1 & 2 [MP3 V0]/05 Op. 19 - 2. Adagio.mp3
               /Users/Shared/Yefim Bronfman with Tonhalle Orchestra Zurich - Piano Concertos Nos. 1 & 2 [MP3 V2]/05 Op. 19 - 2. Adagio.mp3
               /Users/Shared/Yefim Bronfman with Tonhalle Orchestra Zurich - Piano Concertos Nos. 1 & 2 [FLAC]/05 Op. 19 - 2. Adagio.flac
    Pre-gap length : 00:03:58
    Track gain               : 5.51 dB
    Peak                     : 0.609711
    CRC32 hash (test run)    : 4BBFDE14
    CRC32 hash               : 4BBFDE14
    CRC32 hash (skip zero)   : F2D7EC65
    AccurateRip v1 signature : 3B71CCCD
    AccurateRip v2 signature : D31B890F
        ->Accurately ripped (v1+v2, confidence 6+9/101)
    Statistics
        Read error                           : 0
        Jitter error (maybe fixed)           : 0
        Retry sector count                   : 0
        Damaged sector count                 : 0
Track 06
    Filename : /Users/Shared/Yefim Bronfman with Tonhalle Orchestra Zurich - Piano Concertos Nos. 1 & 2 [MP3 320]/06 Op. 19 - 3. Rondo - Molto allegro.mp3
               /Users/Shared/Yefim Bronfman with Tonhalle Orchestra Zurich - Piano Concertos Nos. 1 & 2 [MP3 V0]/06 Op. 19 - 3. Rondo - Molto allegro.mp3
               /Users/Shared/Yefim Bronfman with Tonhalle Orchestra Zurich - Piano Concertos Nos. 1 & 2 [MP3 V2]/06 Op. 19 - 3. Rondo - Molto allegro.mp3
               /Users/Shared/Yefim Bronfman with Tonhalle Orchestra Zurich - Piano Concertos Nos. 1 & 2 [FLAC]/06 Op. 19 - 3. Rondo - Molto allegro.flac
    Pre-gap length : 00:01:58
    Track gain               : 2.83 dB
    Peak                     : 0.726593
    CRC32 hash (test run)    : E18A6804
    CRC32 hash               : E18A6804
    CRC32 hash (skip zero)   : 27D8B20D
    AccurateRip v1 signature : 6A8C0738
    AccurateRip v2 signature : 0D6BBE39
        ->Accurately ripped (v1+v2, confidence 6+9/99)
    Statistics
        Read error                           : 0
        Jitter error (maybe fixed)           : 0
        Retry sector count                   : 0
        Damaged sector count                 : 0
No errors occurred
End of status report
-----BEGIN XLD SIGNATURE-----
vojHZJ.9X3vnqgTp8yNv1l4FLJbumQhHNfXZ3zmNGfSYkT0EDl1UEVw7BiUwBNesPirlHRWYY6zOCJM5v2tMRg6q76Dnea9s9EDl5IO
-----END XLD SIGNATURE-----

-

CUE

TITLE "Piano Concertos Nos. 1 & 2"
PERFORMER "Yefim Bronfman with Tonhalle Orchestra Zurich"
REM GENRE "Classical"
REM DATE "2007"
REM DISCID 430FB306
REM REPLAYGAIN_ALBUM_GAIN 2.97 dB
REM REPLAYGAIN_ALBUM_PEAK 0.960205
FILE "01 Op. 15 - 1. Allegro con brio.flac" WAVE
  TRACK 01 AUDIO
    TITLE "Op. 15 - 1. Allegro con brio"
    SONGWRITER "Ludwig van Beethoven"
    ISRC DEP620600061
    FLAGS PRE
    FLAGS DCP
    REM REPLAYGAIN_TRACK_GAIN 0.90 dB
    REM REPLAYGAIN_TRACK_PEAK 0.960205
    INDEX 01 00:00:00
  TRACK 02 AUDIO
    TITLE "Op. 15 - 2. Largo"
    SONGWRITER "Ludwig van Beethoven"
    ISRC DEP620600062
    FLAGS PRE
    FLAGS DCP
    REM REPLAYGAIN_TRACK_GAIN 5.74 dB
    REM REPLAYGAIN_TRACK_PEAK 0.535248
    INDEX 00 18:03:69
FILE "02 Op. 15 - 2. Largo.flac" WAVE
    INDEX 01 00:00:00
  TRACK 03 AUDIO
    TITLE "Op. 15 - 3. Rondo - Allegro scherzando"
    SONGWRITER "Ludwig van Beethoven"
    ISRC DEP620600063
    FLAGS PRE
    FLAGS DCP
    REM REPLAYGAIN_TRACK_GAIN 2.74 dB
    REM REPLAYGAIN_TRACK_PEAK 0.936218
    INDEX 00 10:36:27
FILE "03 Op. 15 - 3. Rondo - Allegro scherzando.flac" WAVE
    INDEX 01 00:00:00
  TRACK 04 AUDIO
    TITLE "Op. 19 - 1. Allegro con brio"
    SONGWRITER "Ludwig van Beethoven"
    ISRC DEP620600065
    FLAGS PRE
    FLAGS DCP
    REM REPLAYGAIN_TRACK_GAIN 3.90 dB
    REM REPLAYGAIN_TRACK_PEAK 0.669617
    INDEX 00 08:48:56
FILE "04 Op. 19 - 1. Allegro con brio.flac" WAVE
    INDEX 01 00:00:00
  TRACK 05 AUDIO
    TITLE "Op. 19 - 2. Adagio"
    SONGWRITER "Ludwig van Beethoven"
    ISRC DEP620600066
    FLAGS PRE
    FLAGS DCP
    REM REPLAYGAIN_TRACK_GAIN 5.51 dB
    REM REPLAYGAIN_TRACK_PEAK 0.609711
    INDEX 00 14:10:57
FILE "05 Op. 19 - 2. Adagio.flac" WAVE
    INDEX 01 00:00:00
  TRACK 06 AUDIO
    TITLE "Op. 19 - 3. Rondo - Molto allegro"
    SONGWRITER "Ludwig van Beethoven"
    ISRC DEP620600067
    FLAGS PRE
    FLAGS DCP
    REM REPLAYGAIN_TRACK_GAIN 2.83 dB
    REM REPLAYGAIN_TRACK_PEAK 0.726593
    INDEX 00 08:48:40
FILE "06 Op. 19 - 3. Rondo - Molto allegro.flac" WAVE
    INDEX 01 00:00:00
-
[teatrix.ru].t12748.torrent 
Торрент: Зарегистрирован [ 2016-01-12 16:55 ] · B9541273301666F853785D52C024F0744EE11726

Скачать .torrent

Скачать

18 KB

Статус: проверено
Скачан: 0 раз
Размер: 222 MB
terms.php



Быстрый ответ

Имя:

      
Для отправки сообщений необходимо включить JavaScript
Показать сообщения:    

Текущее время: 25-Янв 00:20

Часовой пояс: UTC + 3


Вы можете начинать темы
Вы можете отвечать на сообщения
Вы не можете редактировать свои сообщения
Вы не можете удалять свои сообщения
Вы не можете голосовать в опросах
Вы не можете прикреплять файлы к сообщениям
Вы можете скачивать файлы