(Classical) Ludwig van Beethoven — Piano Concertos № 4 & 5 (Op 58 & 73) (Alfred Brendel; Heinz Wallberg, Zubin Mehta) — 2007, FLAC (tracks+.cue) lossless


Статистика раздачи [Обновить пиров]
Размер:  347 MB   |    Зарегистрирован:  10 месяцев 29 дней   |    Скачан:  0 раз
Сидов:  2  [  0 KB/s  ]   Подробная статистика пиров
 
   
 
 
 

[Цитировать]

Piano Concertos № 4 & 5 (Op 58 & 73)-
Жанр: Classical
Страна-производитель диска: Великобритания
Издатель (лейбл): Regis Records
Номер по каталогу: RRC1047
Год издания диска: June, 26, 2007
Год записи фонограммы: 1961, Vienna
Композитор: Ludwig van Beethoven
Исполнители: Vienna Symphony Orchestra under Heinz Wallberg (Op 58) & Zubin Mehta (Op 73), Alfred Brendel (Piano)
Аудио кодек: flac
Тип рипа: tracks+.cue
Битрейт аудио: lossless
Продолжительность: 01h12'24"
Источник: web
Наличие сканов в содержимом раздачи: нет-Треклист:
(01-03) Piano Concerto № 4 G-Dur Op 58 [33'25"]
(04-06) Piano Concerto № 5 Es-Dur Op 73 «Emperor» [38'59"]-

EAC log

Exact Audio Copy V0.99 prebeta 4 from 23. January 2008
EAC extraction logfile from 10. June 2009, 15:49
Beethoven / Piano Concerto No. 4 & 5
Used drive  : TSSTcorpCD/DVDW SH-S182M   Adapter: 1  ID: 1
Read mode               : Secure
Utilize accurate stream : Yes
Defeat audio cache      : Yes
Make use of C2 pointers : No
Read offset correction                      : 6
Overread into Lead-In and Lead-Out          : No
Fill up missing offset samples with silence : Yes
Delete leading and trailing silent blocks   : No
Null samples used in CRC calculations       : Yes
Used interface                              : Native Win32 interface for Win NT & 2000
Gap handling                                : Appended to previous track
Used output format              : User Defined Encoder
Selected bitrate                : 128 kBit/s
Quality                         : High
Add ID3 tag                     : No
Command line compressor         : C:\Program Files\Exact Audio Copy\Flac\flac.exe
Additional command line options : -8 -V -T "ARTIST=%a" -T "TITLE=%t" -T "ALBUM=%g" -T "DATE=%y" -T "TRACKNUMBER=%n" -T "GENRE=%m" -T "COMMENT=EAC FLAC -8" %s
TOC of the extracted CD
     Track |   Start  |  Length  | Start sector | End sector
    ---------------------------------------------------------
        1  |  0:00.00 | 17:39.27 |         0    |    79451
        2  | 17:39.27 |  4:52.53 |     79452    |   101404
        3  | 22:32.05 | 10:52.57 |    101405    |   150361
        4  | 33:24.62 | 19:58.38 |    150362    |   240249
        5  | 53:23.25 |  8:32.37 |    240250    |   278686
        6  | 61:55.62 | 10:27.55 |    278687    |   325766
Track  1
     Filename F:\[Music]\Beethoven - Piano Concerto No.4 & No.5 - Vienna Symphony & Hans WallbergЈЇZubin Mehta - Alfred Brendel (FLAC)\01 - Piano Concerto No.4 in G, Op.58 - I - Allegro Moderato.wav
     Pre-gap length  0:00:02.00
     Peak level 99.4 %
     Track quality 100.0 %
     Test CRC 93F5F1EB
     Copy CRC 93F5F1EB
     Cannot be verified as accurate (confidence 1)  [87FFCD13], AccurateRip returned [55354698]
     Copy OK
Track  2
     Filename F:\[Music]\Beethoven - Piano Concerto No.4 & No.5 - Vienna Symphony & Hans WallbergЈЇZubin Mehta - Alfred Brendel (FLAC)\02 - Piano Concerto No.4 in G, Op.58 - II - Andante con moto.wav
     Pre-gap length  0:00:03.46
     Peak level 66.4 %
     Track quality 100.0 %
     Test CRC 37B82F4A
     Copy CRC 37B82F4A
     Cannot be verified as accurate (confidence 1)  [5171DCFF], AccurateRip returned [4E836410]
     Copy OK
Track  3
     Filename F:\[Music]\Beethoven - Piano Concerto No.4 & No.5 - Vienna Symphony & Hans WallbergЈЇZubin Mehta - Alfred Brendel (FLAC)\03 - Piano Concerto No.4 in G, Op.58 - III - Rondo-vivace.wav
     Pre-gap length  0:00:00.10
     Peak level 96.4 %
     Track quality 100.0 %
     Test CRC 50D6F263
     Copy CRC 50D6F263
     Cannot be verified as accurate (confidence 1)  [6F91B119], AccurateRip returned [5792B68F]
     Copy OK
Track  4
     Filename F:\[Music]\Beethoven - Piano Concerto No.4 & No.5 - Vienna Symphony & Hans WallbergЈЇZubin Mehta - Alfred Brendel (FLAC)\04 - Piano Concerto No.5 in G, Op.73 - I - Allegro.wav
     Pre-gap length  0:00:08.73
     Peak level 98.5 %
     Track quality 100.0 %
     Test CRC D6C401E5
     Copy CRC D6C401E5
     Cannot be verified as accurate (confidence 1)  [77E18001], AccurateRip returned [7FF2BCE5]
     Copy OK
Track  5
     Filename F:\[Music]\Beethoven - Piano Concerto No.4 & No.5 - Vienna Symphony & Hans WallbergЈЇZubin Mehta - Alfred Brendel (FLAC)\05 - Piano Concerto No.5 in G, Op.73 - II - Adagio un poco mosso.wav
     Pre-gap length  0:00:03.38
     Peak level 42.9 %
     Track quality 100.0 %
     Test CRC B7182237
     Copy CRC B7182237
     Cannot be verified as accurate (confidence 1)  [82B11AA3], AccurateRip returned [23AE1C6C]
     Copy OK
Track  6
     Filename F:\[Music]\Beethoven - Piano Concerto No.4 & No.5 - Vienna Symphony & Hans WallbergЈЇZubin Mehta - Alfred Brendel (FLAC)\06 - Piano Concerto No.5 in G, Op.73 - III - Rondo-Allegro ma non troppo.wav
     Peak level 99.7 %
     Track quality 100.0 %
     Test CRC BFCC0EAC
     Copy CRC BFCC0EAC
     Cannot be verified as accurate (confidence 1)  [A2710315], AccurateRip returned [A3F01106]
     Copy OK
No tracks could be verified as accurate
You may have a different pressing from the one(s) in the database
No errors occurred
End of status report

-

CUETools log

[CUETools log; Date: 12.01.2016 13:07:07; Version: 2.1.5]
[CTDB TOCID: kZDKiKAr9cf81R.MrMwgn_gEM5g-] found.
Track | CTDB Status
  1   | (1/1) Accurately ripped
  2   | (1/1) Accurately ripped
  3   | (1/1) Accurately ripped
  4   | (1/1) Accurately ripped
  5   | (1/1) Accurately ripped
  6   | (1/1) Accurately ripped
[AccurateRip ID: 0011f173-005ee245-3b10f706] found.
Track   [  CRC   |   V2   ] Status
01     [87ffcd13|6b30e8c5] (0+0/1) No match
02     [5171dcff|f44a5eec] (0+0/1) No match
03     [6f91b119|2a9c3094] (0+0/1) No match
04     [77e18001|b7763095] (0+0/1) No match
05     [82b11aa3|57d09d19] (0+0/1) No match
06     [a2710315|582f0a1d] (0+0/1) No match
Offsetted by 18:
01     [55354698] (1/1) Accurately ripped
02     [4e836410] (1/1) Accurately ripped
03     [5792b68f] (1/1) Accurately ripped
04     [7ff2bce5] (1/1) Accurately ripped
05     [23ae1c6c] (1/1) Accurately ripped
06     [a3f01106] (1/1) Accurately ripped
Track Peak [ CRC32  ] [W/O NULL] [  LOG   ]
--   99,7 [4B0BDCAB] [D2E1E461]
01   99,4 [93F5F1EB] [AB3F3D14]   CRC32
02   66,4 [37B82F4A] [D46BA39E]   CRC32
03   96,4 [50D6F263] [BE0166D6]   CRC32
04   98,5 [D6C401E5] [6CF51AC5]   CRC32
05   42,9 [B7182237] [E9D9FBBE]   CRC32
06   99,7 [BFCC0EAC] [4E53ED2E]   CRC32

-

CUE

REM GENRE Classical
REM DATE 1961
REM DISCID 3B10F706
REM COMMENT "ExactAudioCopy v0.99pb4"
PERFORMER "Beethoven"
TITLE "Piano Concerto No. 4 & 5"
FILE "01 - Piano Concerto No.4 in G, Op.58 - I - Allegro Moderato.wav" WAVE
  TRACK 01 AUDIO
    TITLE "Piano Concerto No.4 in G, Op.58 - I - Allegro Moderato"
    PERFORMER "Beethoven"
    INDEX 01 00:00:00
  TRACK 02 AUDIO
    TITLE "Piano Concerto No.4 in G, Op.58 - II - Andante con moto"
    PERFORMER "Beethoven"
    INDEX 00 17:35:56
FILE "02 - Piano Concerto No.4 in G, Op.58 - II - Andante con moto.wav" WAVE
    INDEX 01 00:00:00
  TRACK 03 AUDIO
    TITLE "Piano Concerto No.4 in G, Op.58 - III - Rondo-vivace"
    PERFORMER "Beethoven"
    INDEX 00 04:52:43
FILE "03 - Piano Concerto No.4 in G, Op.58 - III - Rondo-vivace.wav" WAVE
    INDEX 01 00:00:00
  TRACK 04 AUDIO
    TITLE "Piano Concerto No.5 in G, Op.73 - I - Allegro"
    PERFORMER "Beethoven"
    INDEX 00 10:43:59
FILE "04 - Piano Concerto No.5 in G, Op.73 - I - Allegro.wav" WAVE
    INDEX 01 00:00:00
  TRACK 05 AUDIO
    TITLE "Piano Concerto No.5 in G, Op.73 - II - Adagio un poco mosso"
    PERFORMER "Beethoven"
    INDEX 00 19:55:00
FILE "05 - Piano Concerto No.5 in G, Op.73 - II - Adagio un poco mosso.wav" WAVE
    INDEX 01 00:00:00
FILE "06 - Piano Concerto No.5 in G, Op.73 - III - Rondo-Allegro ma non troppo.wav" WAVE
  TRACK 06 AUDIO
    TITLE "Piano Concerto No.5 in G, Op.73 - III - Rondo-Allegro ma non troppo"
    PERFORMER "Beethoven"
    INDEX 01 00:00:00
-
[teatrix.ru].t12749.torrent 
Торрент: Зарегистрирован [ 2016-01-12 16:55 ] · E65118FDC289B8958DFDFA3545273A9941F0EF7C

Скачать .torrent

Скачать

15 KB

Статус: проверено
Скачан: 0 раз
Размер: 347 MB
terms.php



Быстрый ответ

Имя:

      
Для отправки сообщений необходимо включить JavaScript
Показать сообщения:    

Текущее время: 11-Дек 13:02

Часовой пояс: UTC + 3


Вы можете начинать темы
Вы можете отвечать на сообщения
Вы не можете редактировать свои сообщения
Вы не можете удалять свои сообщения
Вы не можете голосовать в опросах
Вы не можете прикреплять файлы к сообщениям
Вы можете скачивать файлы