(Classical) Charles Koechlin, Maurice Emmanuel - Music for Flute, Clarinet & Piano - Markus Brönnimann (Bronnimann), Jean-Philippe Vivier, Michael Kleiser - 2013, FLAC (image+.cue) lossless


 

[Цитировать]

Charles Koechlin, Maurice Emmanuel - Music for Flute, Clarinet & Piano - Markus Brönnimann, Jean-Philippe Vivier, Michael Kleiser
Жанр: Classical
Год издания диска: 2013
Издатель (лейбл): Brilliant Classics
Номер по каталогу: 9422
Дата записи: 2003
Аудиокодек: FLAC
Тип рипа: image+.cue
Битрейт аудио: lossless
Продолжительность: 59:55
Источник: собственный рип
Наличие сканов в содержимом раздачи: да
Треклист:
Maurice Emmanuel (1862-1938)
[1]-[3] Sonata for Clarinet, Flute and Piano, Op.11 (1907)
Charles Koechlin (1867-1950)
[4]-[6] Flute Sonata, Op. 52 (1911-13)
[7]-[9] Clarinet Sonata No. 1, Op. 85 (1923)
[10]-[12] Clarinet Sonata No. 2, Op. 86 (1923)
[13]-[17] Sonatine modale for Flute and Clarinet, Op. 155a (1935-36)
[18]-[20] Three pieces (from Op. 178) for Clarinet and Piano (1942)
[21] Pastorale, Op. 75bis for Flute, Clarinet and Piano (1917-21)
Исполнители:
Markus Brönnimann flute
Jean-Philippe Vivier clarinet
Michael Kleiser piano

Лог создания рипа

Exact Audio Copy V1.0 beta 3 from 29. August 2011
EAC extraction logfile from 27. April 2015, 2:00
Markus Brönnimann, Jean-Philippe Vivier, Michael Kleiser / Koechlin, Emmanuel - Music for Flute, Clarinet & Piano
Used drive : HL-DT-STDVDRAM GU70N Adapter: 0 ID: 0
Read mode : SecureUtilize accurate stream : YesDefeat audio cache : YesMake use of C2 pointers : No
Read offset correction : 48Overread into Lead-In and Lead-Out : NoFill up missing offset samples with silence : YesDelete leading and trailing silent blocks : NoNull samples used in CRC calculations : YesUsed interface : Native Win32 interface for Win NT & 2000
Used output format : User Defined EncoderSelected bitrate : 128 kBit/sQuality : HighAdd ID3 tag : NoCommand line compressor : C:\Program Files (x86)\Exact Audio Copy\Flac\flac.exeAdditional command line options : -V -8 -T "Date=%year%" -T "Genre=%genre%" %source%
TOC of the extracted CD
Track | Start | Length | Start sector | End sector --------------------------------------------------------- 1 | 0:00.00 | 4:17.18 | 0 | 19292 2 | 4:17.18 | 4:51.35 | 19293 | 41152 3 | 9:08.53 | 3:39.06 | 41153 | 57583 4 | 12:47.59 | 4:09.22 | 57584 | 76280 5 | 16:57.06 | 3:12.55 | 76281 | 90735 6 | 20:09.61 | 6:10.04 | 90736 | 118489 7 | 26:19.65 | 2:35.28 | 118490 | 130142 8 | 28:55.18 | 3:51.19 | 130143 | 147486 9 | 32:46.37 | 3:08.68 | 147487 | 161654 10 | 35:55.30 | 2:53.57 | 161655 | 174686 11 | 38:49.12 | 3:03.03 | 174687 | 188414 12 | 41:52.15 | 2:51.06 | 188415 | 201245 13 | 44:43.21 | 1:10.19 | 201246 | 206514 14 | 45:53.40 | 1:10.63 | 206515 | 211827 15 | 47:04.28 | 1:26.51 | 211828 | 218328 16 | 48:31.04 | 1:57.59 | 218329 | 227162 17 | 50:28.63 | 1:16.27 | 227163 | 232889 18 | 51:45.15 | 0:59.31 | 232890 | 237345 19 | 52:44.46 | 1:27.74 | 237346 | 243944 20 | 54:12.45 | 2:24.72 | 243945 | 254816 21 | 56:37.42 | 3:17.33 | 254817 | 269624
Range status and errors
Selected range
Filename C:\temp\Koechlin, Emmanuel - Music for Flute, Clarinet & Piano\Koechlin, Emmanuel - Music for Flute, Clarinet & Piano.wav
Peak level 98.1 % Extraction speed 1.7 X Range quality 100.0 % Test CRC 83F7DD27 Copy CRC 83F7DD27 Copy OK
No errors occurred
AccurateRip summary
Track 1 accurately ripped (confidence 1) [C52616BA] (AR v2)Track 2 accurately ripped (confidence 1) [60E1E66F] (AR v2)Track 3 accurately ripped (confidence 1) [CA0566F8] (AR v2)Track 4 accurately ripped (confidence 1) [6F070045] (AR v2)Track 5 accurately ripped (confidence 1) [9E1149DA] (AR v2)Track 6 accurately ripped (confidence 1) [EF6EA65A] (AR v2)Track 7 accurately ripped (confidence 1) [E06DA5F2] (AR v2)Track 8 accurately ripped (confidence 1) [B50E691E] (AR v2)Track 9 accurately ripped (confidence 1) [E43EC342] (AR v2)Track 10 accurately ripped (confidence 1) [2012BE7C] (AR v2)Track 11 accurately ripped (confidence 1) [64CDEC50] (AR v2)Track 12 accurately ripped (confidence 1) [AECBA516] (AR v2)Track 13 accurately ripped (confidence 1) [E3F8A638] (AR v2)Track 14 accurately ripped (confidence 1) [1F9DE5D7] (AR v2)Track 15 accurately ripped (confidence 1) [DA8F9D46] (AR v2)Track 16 accurately ripped (confidence 1) [6A1909C3] (AR v2)Track 17 accurately ripped (confidence 1) [800BB5C9] (AR v2)Track 18 accurately ripped (confidence 1) [AADC472C] (AR v2)Track 19 accurately ripped (confidence 1) [AE46F9F9] (AR v2)Track 20 accurately ripped (confidence 1) [72847A88] (AR v2)Track 21 accurately ripped (confidence 1) [BE0D54F5] (AR v2)
All tracks accurately ripped
End of status report
==== Log checksum B5FD5658553117A1BADDEE8F2F6CE92C592C10B07DFA17EA51A14BEB397F8818 ====



Показать сообщения:    

Текущее время: 04-Дек 21:24

Часовой пояс: UTC + 3


Вы не можете начинать темы
Вы не можете отвечать на сообщения
Вы не можете редактировать свои сообщения
Вы не можете удалять свои сообщения
Вы не можете голосовать в опросах
Вы не можете прикреплять файлы к сообщениям
Вы не можете скачивать файлы