(Soundtrack, Teen) VA - Teen Beach 2 (Лето. Пляж. Кино 2) - 2015, FLAC (tracks+.cue), lossless


Статистика раздачи [Обновить пиров]
Размер:  324 MB   |    Зарегистрирован:  10 месяцев 27 дней   |    Скачан:  1 раз

Полного источника не было: 9 дней

Личеров:  6  [  0 KB/s  ]   Подробная статистика пиров
 
   
 
 
 

[Цитировать]

Various Artists - Teen Beach 2 (Лето. Пляж. Кино 2)
Жанр: Soundtrack, Teen
Страна United States
Цифровой релиз альбома: 2015
Год выпуска фильма: 2015
Издатель: ℗ 2015 Walt Disney Records
Аудиокодек: FLAC (*.flac)
Тип рипа: tracks+.cue
Битрейт аудио: lossless
Продолжительность: 0:45:01
Источник: скачано с сайта what.cd (пользователь - Delerowen)
«Лето. Пляж. Кино 2» (Teen Beach 2) - продолжение американского фильма телеканала Disney Channel, вышедшего в эфир в 2015 году. Первая часть фильма «Лето. Пляж. Кино» (Teen Beach Movie) вышла в эфир в 2013 году. Премьера фильма в США состоялась 26 июня 2015 года, на следующий же день в Австралии и Италии, в июле - в Великобритании, Японии и других странах.
Саундтрек к фильму был выпущен в цифровом формате 23 июня 2015 года для скачивания с сайта. Альбом «Teen Beach 2» занял десятую строчку в чарте альбомов Billboard 200, а также дебютировал на первой строчке среди саундтреков чарта Billboard Top Soundtracks. (Английская Википедия).

.
Треклист:
01 Ross Lynch, Maia Mitchell, Garrett Clayton, Grace Phipps, John DeLuca, Jordan Fisher & Chrissie Fit - Best Summer Ever
02 Ross Lynch - On My Own
03 Garrett Clayton & Grace Phipps - Right Where I Wanna Be
04 Jordan Fisher & Chrissie Fit - Falling for Ya
05 Jordan Fisher - Wanna Be With You
06 Ross Lynch, Maia Mitchell, Garrett Clayton & Grace Phipps - Twist Your Frown Upside Down
07 Ross Lynch & Maia Mitchell - Silver Screen
08 Sabrina Carpenter - Rescue Me
09 Ross Lynch, Maia Mitchell, Garrett Clayton, Grace Phipps, John DeLuca & Jordan Fisher - Gotta Be Me
10 Ross Lynch, Maia Mitchell, Garrett Clayton & Grace Phipps - Meant to Be (Reprise 3)
11 Ross Lynch, Maia Mitchell, Garrett Clayton, Grace Phipps, John DeLuca & Jordan Fisher - That's How We Do
12 R5 - Starting Over
13 Ross Lynch - On My Own
14 Matthew Tishler & Amy Powers - Best Summer Ever (Instrumental)
15 Niclas Molinder, Joacim Persson, Johan Alkenäs & Charlie Mason - Gotta Be (Instrumental)

Лог создания рипа

Exact Audio Copy V1.0 beta 3 from 29. August 2011
EAC extraction logfile from 6. July 2015, 16:51
Various / Teen Beach 2 Soundtrack
Used drive : HL-DT-STBD-RE BH16NS40 Adapter: 2 ID: 0
Read mode : SecureUtilize accurate stream : YesDefeat audio cache : YesMake use of C2 pointers : No
Read offset correction : 6Overread into Lead-In and Lead-Out : NoFill up missing offset samples with silence : YesDelete leading and trailing silent blocks : NoNull samples used in CRC calculations : YesUsed interface : Native Win32 interface for Win NT & 2000Gap handling : Appended to previous track
Used output format : User Defined EncoderSelected bitrate : 896 kBit/sQuality : HighAdd ID3 tag : NoCommand line compressor : C:\Program Files (x86)\Exact Audio Copy\Flac\flac.exeAdditional command line options : -8 -V -T "ARTIST=%artist%" -T "TITLE=%title%" -T "ALBUM=%albumtitle%" -T "DATE=%year%" -T "TRACKNUMBER=%tracknr%" -T "GENRE=%genre%" -T "PERFORMER=%albuminterpret%" -T "COMPOSER=%composer%" %haslyrics%--tag-from-file=LYRICS="%lyricsfile%"%haslyrics% -T "ALBUMARTIST=%albumartist%" -T "DISCNUMBER=%cdnumber%" -T "TOTALDISCS=%totalcds%" -T "TOTALTRACKS=%numtracks%" -T "COMMENT=%comment%" %source% -o %dest%
TOC of the extracted CD
Track | Start | Length | Start sector | End sector --------------------------------------------------------- 1 | 0:00.00 | 3:30.28 | 0 | 15777 2 | 3:30.28 | 2:26.69 | 15778 | 26796 3 | 5:57.22 | 2:31.04 | 26797 | 38125 4 | 8:28.26 | 2:06.09 | 38126 | 47584 5 | 10:34.35 | 2:52.45 | 47585 | 60529 6 | 13:27.05 | 3:00.27 | 60530 | 74056 7 | 16:27.32 | 2:59.60 | 74057 | 87541 8 | 19:27.17 | 2:36.35 | 87542 | 99276 9 | 22:03.52 | 3:54.58 | 99277 | 116884 10 | 25:58.35 | 1:56.42 | 116885 | 125626 11 | 27:55.02 | 3:37.68 | 125627 | 141969 12 | 31:32.70 | 2:57.21 | 141970 | 155265 13 | 34:30.16 | 3:28.54 | 155266 | 170919 14 | 37:58.70 | 3:29.60 | 170920 | 186654 15 | 41:28.55 | 3:54.12 | 186655 | 204216 16 | 47:54.67 | 6:05.25 | 215617 | 243016
Track 1
Filename Z:\home\rips\Various Artists - Teen Beach 2 Soundtrack (2015) [FLAC]\01 - Lynch, Mitchell, Clayton, Phipps, Deluca, Fisher - Best Summer Ever.wav
Pre-gap length 0:00:02.00
Peak level 93.9 % Extraction speed 2.9 X Track quality 100.0 % Test CRC 86B6472C Copy CRC 86B6472C Track not present in AccurateRip database Copy OK
Track 2
Filename Z:\home\rips\Various Artists - Teen Beach 2 Soundtrack (2015) [FLAC]\02 - Ross Lynch - On My Own.wav
Pre-gap length 0:00:01.50
Peak level 98.8 % Extraction speed 2.4 X Track quality 100.0 % Test CRC FAED0ACD Copy CRC FAED0ACD Track not present in AccurateRip database Copy OK
Track 3
Filename Z:\home\rips\Various Artists - Teen Beach 2 Soundtrack (2015) [FLAC]\03 - Garrett Clayton & Grace Phipps - Right Where I Want to Be.wav
Pre-gap length 0:00:01.50
Peak level 94.2 % Extraction speed 2.4 X Track quality 99.9 % Test CRC 3842C993 Copy CRC 3842C993 Track not present in AccurateRip database Copy OK
Track 4
Filename Z:\home\rips\Various Artists - Teen Beach 2 Soundtrack (2015) [FLAC]\04 - Jordan Fisher & Christie Fit - Falling for Ya.wav
Pre-gap length 0:00:01.50
Peak level 98.8 % Extraction speed 3.0 X Track quality 100.0 % Test CRC 846A9144 Copy CRC 846A9144 Track not present in AccurateRip database Copy OK
Track 5
Filename Z:\home\rips\Various Artists - Teen Beach 2 Soundtrack (2015) [FLAC]\05 - Jordan Fisher - Wanna Be With You.wav
Pre-gap length 0:00:01.50
Peak level 94.0 % Extraction speed 3.0 X Track quality 100.0 % Test CRC 153046EC Copy CRC 153046EC Track not present in AccurateRip database Copy OK
Track 6
Filename Z:\home\rips\Various Artists - Teen Beach 2 Soundtrack (2015) [FLAC]\06 - Lynch, Mitchell, Clayton, Phipps - Twist Your Frown Upside Down.wav
Pre-gap length 0:00:01.50
Peak level 98.9 % Extraction speed 3.2 X Track quality 100.0 % Test CRC EFA5D7AA Copy CRC EFA5D7AA Track not present in AccurateRip database Copy OK
Track 7
Filename Z:\home\rips\Various Artists - Teen Beach 2 Soundtrack (2015) [FLAC]\07 - Ross Lynch & Maia Mitchell - Silver Screen.wav
Pre-gap length 0:00:01.50
Peak level 100.0 % Extraction speed 3.3 X Track quality 100.0 % Test CRC BE3EDBA6 Copy CRC BE3EDBA6 Track not present in AccurateRip database Copy OK
Track 8
Filename Z:\home\rips\Various Artists - Teen Beach 2 Soundtrack (2015) [FLAC]\08 - Sabrina Carpenter - Rescue Me.wav
Pre-gap length 0:00:01.50
Peak level 94.9 % Extraction speed 3.3 X Track quality 100.0 % Test CRC 8A666663 Copy CRC 8A666663 Track not present in AccurateRip database Copy OK
Track 9
Filename Z:\home\rips\Various Artists - Teen Beach 2 Soundtrack (2015) [FLAC]\09 - Lynch, Mitchell, Clayton, Phipps, Deluca, Fisher - Gotta Be Me.wav
Pre-gap length 0:00:01.50
Peak level 91.2 % Extraction speed 3.8 X Track quality 100.0 % Test CRC CE7CD1CC Copy CRC CE7CD1CC Track not present in AccurateRip database Copy OK
Track 10
Filename Z:\home\rips\Various Artists - Teen Beach 2 Soundtrack (2015) [FLAC]\10 - Lynch, Mitchell, Clayton, Phipps - Meant to Be.wav
Pre-gap length 0:00:01.50
Peak level 98.7 % Extraction speed 2.9 X Track quality 100.0 % Test CRC 687BA97F Copy CRC 687BA97F Track not present in AccurateRip database Copy OK
Track 11
Filename Z:\home\rips\Various Artists - Teen Beach 2 Soundtrack (2015) [FLAC]\11 - Lynch, Mitchell, Clayton, Phipps, Deluca, Fisher - That's How We Do.wav
Pre-gap length 0:00:01.50
Peak level 98.8 % Extraction speed 4.1 X Track quality 100.0 % Test CRC 58B593A4 Copy CRC 58B593A4 Track not present in AccurateRip database Copy OK
Track 12
Filename Z:\home\rips\Various Artists - Teen Beach 2 Soundtrack (2015) [FLAC]\12 - R5 - Starting Over.wav
Pre-gap length 0:00:01.50
Peak level 98.6 % Extraction speed 3.7 X Track quality 99.9 % Test CRC 47079962 Copy CRC 47079962 Track not present in AccurateRip database Copy OK
Track 13
Filename Z:\home\rips\Various Artists - Teen Beach 2 Soundtrack (2015) [FLAC]\13 - Ross Lynch - On My Own (Radio Version).wav
Pre-gap length 0:00:01.50
Peak level 98.8 % Extraction speed 4.3 X Track quality 100.0 % Test CRC 10A419AD Copy CRC 10A419AD Track not present in AccurateRip database Copy OK
Track 14
Filename Z:\home\rips\Various Artists - Teen Beach 2 Soundtrack (2015) [FLAC]\14 - Instrumental - Best Summer Ever.wav
Pre-gap length 0:00:01.50
Peak level 98.8 % Extraction speed 4.0 X Track quality 99.9 % Test CRC AC85FD29 Copy CRC AC85FD29 Track not present in AccurateRip database Copy OK
Track 15
Filename Z:\home\rips\Various Artists - Teen Beach 2 Soundtrack (2015) [FLAC]\15 - Instrumental - Gotta Be Me.wav
Pre-gap length 0:00:01.50
Peak level 96.3 % Extraction speed 5.0 X Track quality 100.0 % Test CRC 24D0135F Copy CRC 24D0135F Track not present in AccurateRip database Copy OK
None of the tracks are present in the AccurateRip database
No errors occurred
End of status report
==== Log checksum 023BF1EB77A12CD522F065626CBCCCACFEEF6CE941092C43EAD0674B82208726 ====
[teatrix.ru].t12754.torrent 
Торрент: Зарегистрирован [ 2016-01-12 16:55 ] · 4C4446CF14F438116C9475A7DC88CD3C3D397586

Скачать .torrent

Скачать

15 KB

Статус: проверено
Скачан: 1 раз
Размер: 324 MB
terms.php



Быстрый ответ

Имя:

      
Для отправки сообщений необходимо включить JavaScript
Показать сообщения:    

Текущее время: 08-Дек 19:11

Часовой пояс: UTC + 3


Вы можете начинать темы
Вы можете отвечать на сообщения
Вы не можете редактировать свои сообщения
Вы не можете удалять свои сообщения
Вы не можете голосовать в опросах
Вы не можете прикреплять файлы к сообщениям
Вы можете скачивать файлы