[TR24][OF] Placido Domingo - My Christmas - 2015 (Holiday, Sacred, Vocal)


Статистика раздачи [Обновить пиров]
Размер:  502 MB   |    Зарегистрирован:  10 месяцев 25 дней   |    Скачан:  0 раз

Полного источника не было: Никогда

Личеров:  4  [  0 KB/s  ]   Подробная статистика пиров
 
   
 
 
 

[Цитировать]

Placido Domingo - My Christmas
Формат записи/Источник записи: [TR24][OF]
Наличие водяных знаков: Нет
Год издания/переиздания диска: 2015
Жанр: Holiday, Sacred, Vocal
Издатель(лейбл): Sony Classical
Продолжительность: 47:19
Исполнитель:
Placido Domingo,
Vincent Niclo (track 1),
Idina Menzel (track 2),
The Piano Guys (track 3),
Helene Fischer (track 4),
The Voices Of Los Angeles Opera`s Domingo - Colburn - Stein Young Artist Program (track 5),
Jackie Evancho (track 7),
Hayley Westenra (track 9),
Placido Domingo Jr. (track 11),
Banda El Recodo (track 13).
The Czech National Symphony Orchestra,
Eugene Kohn, Conductor.
Recorded at Global Media Studios, Madrid, July-August 2015.
Контейнер: FLAC (*.flac)
Тип рипа: tracks
Разрядность: 24/44,1
Количество каналов: 2.0
Источник: qobuz

DR-Report

foobar2000 1.3.6 / Замер динамического диапазона (DR) 1.1.1Дата отчёта: 2016-01-12 03:10:14
--------------------------------------------------------------------------------Анализ: Plácido Domingo & Idina Menzel / My Christmas (1) Plácido Domingo & The Piano Guys / My Christmas (2) Plácido Domingo, Banda El Recodo, The Czech National Symphony Choir, The Czech National Symphony Orchestra & Eugene Kohn / My Christmas (3) Plácido Domingo, Hayley Westenra, The Czech National Symphony Orchestra & Eugene Kohn / My Christmas (4) Plácido Domingo, Helene Fischer, Royal Philharmonic Orchestra & Richard Balcome / My Christmas (5) Plácido Domingo, Plácido Domingo Jr., The Czech National Symphony Orchestra & Eugene Kohn / My Christmas (6) Plácido Domingo, The Czech National Symphony Choir, The Czech National Symphony Orchestra & Eugene Kohn / My Christmas (7-11) Plácido Domingo, The Voice of Los Angeles Opera's Domingo-Colburn-Stein Young Artist Program, The Czech National Symphony Choir, The Czech National Symphony Orchestra & Eugene Kohn / My Christmas (12) Plácido Domingo, Vincent Niclo, The Czech National Symphony Orchestra & Sally Herbert / My Christmas (13)--------------------------------------------------------------------------------
DR Пики RMS Продолжительность трека--------------------------------------------------------------------------------DR10 -1.33 дБ -16.49 дБ 3:48 02-Guardian AngelsDR9 -1.21 дБ -15.50 дБ 3:27 03-Silent NightDR12 -1.23 дБ -15.20 дБ 2:51 13-Feliz NavidadDR10 -1.21 дБ -15.13 дБ 3:43 09-Loving Christmas With YouDR9 -1.21 дБ -14.82 дБ 3:53 04-What Child Is ThisDR10 -1.21 дБ -15.11 дБ 3:44 11-White ChristmasDR8 -1.21 дБ -13.37 дБ 3:35 06-Hark The Herald Angels SingDR12 -1.22 дБ -17.55 дБ 3:53 07-Pie Jesu from RequiemDR9 -1.21 дБ -14.80 дБ 3:16 08-Astro del cieloDR11 -1.21 дБ -17.36 дБ 4:40 10-It Came upon the Midnight ClearDR9 -1.21 дБ -13.56 дБ 2:37 12-Ave verum corpus K. 618DR9 -1.21 дБ -15.15 дБ 3:21 05-God Rest Ye Merry GentlemenDR10 -1.64 дБ -15.50 дБ 3:49 01-Have Yourself a Merry Little Christmas--------------------------------------------------------------------------------
Количество треков: 13Реальные значения DR: DR10
Частота: 44100 ГцКаналов: 2Разрядность: 24Битрейт: 1494 кбит/сКодек: FLAC================================================================================

Треклист

01. Have Yourself A Merry Little Christmas (03:50)
02. Guardian Angels (03:47)
03. Silent Night (03:27)
04. What Child Is This (03:52)
05. God Rest Ye Merry, Gentlemen (03:21)
06. Hark! The Herald Angels Sing (03:34)
07. Pie Jesu From Requiem (03:53)
08. Astro Del Cielo (03:15)
09. Loving Christmas With You (03:42)
10. It Came Upon The Midnight Clear (04:39)
11. White Christmas (03:44)
12. Ave Verum Corpus (02:36)
13. Feliz Navidad (02:51)
[teatrix.ru].t12760.torrent 
Торрент: Зарегистрирован [ 2016-01-12 16:55 ] · 019CCDD32672DAF8992DF71902BB5D1667BC3752

Скачать .torrent

Скачать

21 KB

Статус: проверено
Скачан: 0 раз
Размер: 502 MB
terms.php



Быстрый ответ

Имя:

      
Для отправки сообщений необходимо включить JavaScript
Показать сообщения:    

Текущее время: 06-Дек 22:53

Часовой пояс: UTC + 3


Вы можете начинать темы
Вы можете отвечать на сообщения
Вы не можете редактировать свои сообщения
Вы не можете удалять свои сообщения
Вы не можете голосовать в опросах
Вы не можете прикреплять файлы к сообщениям
Вы можете скачивать файлы