[TR24][OF] Arnold Schoenberg - Violin & Piano Concerti (Daniel Barenboim, Michael Barenboim, Pierre Boulez, Wiener Philharmoniker) - 2015 (Orchestral, Neoclassical)


Статистика раздачи [Обновить пиров]
Размер:  589 MB   |    Зарегистрирован:  10 месяцев 21 день   |    Скачан:  0 раз

Полного источника не было: Никогда

Личеров:  2  [  0 KB/s  ]   Подробная статистика пиров
 
   
 
 
 

[Цитировать]

Arnold Schoenberg - Violin & Piano Concerti
Формат записи/Источник записи: [TR24][OF]
Наличие водяных знаков: Нет
Год издания/переиздания диска: 2015
Жанр: Orchestral, Neoclassical
Издатель(лейбл): Peral
Продолжительность: 57:28
Исполнитель:
Daniel Barenboim, Conductor,
Pierre Boulez, Conductor,
Michael Barenboim, violin,
Wiener Philharmoniker, Orchestra.
Контейнер: FLAC (*.flac)
Тип рипа: tracks
Разрядность: 24/48
Количество каналов: 2.0
Источник: Presto Classical

DR-Report

foobar2000 1.3.6 / Замер динамического диапазона (DR) 1.1.1Дата отчёта: 2016-01-10 21:33:28
--------------------------------------------------------------------------------Анализ: Daniel Barenboim, Associated Performer, Main Artist, Piano - Wiener Philharmoniker, Main Artist, Orchestra - Pierre Boulez, Conductor, Main Artist - Arnold Schoenberg, Composer - G. Schirmer, Inc. / Wiener Philharmoniker : Schoenberg: Violin & Piano Concerti (1-4) Michael Barenboim, Associated Performer, Main Artist, Violin - Wiener Philharmoniker, Main Artist, Orchestra - Pierre Boulez, Conductor, Main Artist - Arnold Schoenberg, Composer - G. Schirmer, Inc. / Wiener Philharmoniker : Schoenberg: Violin & Piano Concerti (5-7)--------------------------------------------------------------------------------
DR Пики RMS Продолжительность трека--------------------------------------------------------------------------------DR15 -0.10 дБ -21.46 дБ 4:48 04-Concerto for Piano and Orchestra, Op.42:AndanteDR13 -1.30 дБ -20.49 дБ 2:33 05-Concerto for Piano and Orchestra, Op.42:Molto allegroDR15 -0.24 дБ -22.89 дБ 6:49 06-Concerto for Piano and Orchestra, Op.42:AdagioDR16 -0.10 дБ -21.56 дБ 7:38 07-Concerto for Piano and Orchestra, Op.42:Giocoso (moderato)DR17 -2.94 дБ -26.99 дБ 13:27 01-Violin Concerto, Op.36:1. Poco AllegroDR17 -2.38 дБ -28.31 дБ 9:09 02-Violin Concerto, Op.36:2. Andante graziosoDR18 -0.10 дБ -25.83 дБ 13:09 03-Violin Concerto, Op.36:3. Finale. Allegro--------------------------------------------------------------------------------
Количество треков: 7Реальные значения DR: DR16
Частота: 48000 ГцКаналов: 2Разрядность: 24Битрейт: 1440 кбит/сКодек: FLAC================================================================================

Треклист

Violin Concerto, Op.36:
1. Poco Allegro
2. Andante grazioso
3. Finale. Allegro
Concerto for Piano and Orchestra, Op.42:
Andante
Molto allegro
Adagio
Giocoso (moderato)
[teatrix.ru].t12762.torrent 
Торрент: Зарегистрирован [ 2016-01-12 16:55 ] · 27D9289B4F6E5D93E0EA26BAF721863C264D1296

Скачать .torrent

Скачать

13 KB

Статус: проверено
Скачан: 0 раз
Размер: 589 MB
terms.php



Быстрый ответ

Имя:

      
Для отправки сообщений необходимо включить JavaScript
Показать сообщения:    

Текущее время: 03-Дек 16:47

Часовой пояс: UTC + 3


Вы можете начинать темы
Вы можете отвечать на сообщения
Вы не можете редактировать свои сообщения
Вы не можете удалять свои сообщения
Вы не можете голосовать в опросах
Вы не можете прикреплять файлы к сообщениям
Вы можете скачивать файлы