Великая Афродита / Mighty Aphrodite (Вуди Аллен / Woody Allen) [1995, США, Комедия, BDRemux 1080p] MVO + Sub Eng + Original Eng


 

[Цитировать]

-Великая Афродита / Mighty Aphrodite-Страна: США
Жанр: Комедия
Год выпуска: 1995
Продолжительность: 01:34:49-Перевод: Профессиональный (многоголосый закадровый)
Cубтитры: английские
Оригинальная аудиодорожка: английский-Режиссер: Вуди Аллен / Woody Allen
В ролях: Вуди Аллен /Woody Allen/, Ф. Мюррей Абрахам /F. Murray Abraham/, Мира Сорвино /Mira Sorvino/, Хелена Бонэм Картер /Helena Bonham Carter/, Клер Блум /Claire Bloom/, Олимпия Дукакис /Olympia Dukakis/, Майкл Рапапорт /Michael Rapaport/, Дэвид Огден Стирс /David Ogden Stiers/, Джек Уорден /Jack Warden/, Питер Уэллер /Peter Weller/-Описание: Жена главного героя (Вуди) хотела ребенка, но не хотела ходить с животом. Выход она нашла в усыновлении, несмотря на слабое сопротивление мужа. Проходит несколько лет, и наш герой (спортивный журналист) вдруг одержимо захотел узнать настоящую мать приемного сына. Поиски приводят его к проститутке, снимающейся в порнофильмах и мечтающей о сцене Бродвея. К чему это приведет всех персонажей картины, поклонники мастера интеллектуальной комедии, знаменитого сценариста, режиссера и актера предпочтут узнать сами. (Иванов М.)--Сэмпл: http://yadi.sk/d/rxU6i8lf5_7zW-Тип релиза: BDRemux 1080p
Контейнер: MKV
Видео: MPEG-4 AVC Video 26441 kbps 1080p / 24 fps / 16:9 / High Profile 4.1
Аудио: Dolby Digital Audio Russian 2.0 / 48 kHz / 192 kbps
Аудио: Dolby Digital Audio English 2.0 / 48 kHz / 192 kbps
Формат субтитров: softsub (SRT)

MI

General
Complete name                    : V:\Фильмы\Вуди Аллен\Великая Афродита (1995. Mighty Aphrodite).mkv
Format                           : Matroska
File size                        : 17.8 GiB
Duration                         : 1h 34mn
Overall bit rate                 : 26.8 Mbps
Movie name                       : Mighty.Aphrodite.1995.
Encoded date                     : UTC 2013-06-06 20:01:33
Writing application              : mkvmerge v4.9.1 ('Ich will') сборка от Jul 11 2011 23:53:15
Writing library                  : libebml v1.2.1 + libmatroska v1.1.1
Video
ID                               : 1
Format                           : AVC
Format/Info                      : Advanced Video Codec
Format profile                   : High@L4.1
Format settings, CABAC           : Yes
Format settings, ReFrames        : 3 frames
Muxing mode                      : Container profile=Unknown@4.1
Codec ID                         : V_MPEG4/ISO/AVC
Duration                         : 1h 34mn
Bit rate mode                    : Variable
Bit rate                         : 25.9 Mbps
Maximum bit rate                 : 34.0 Mbps
Width                            : 1 920 pixels
Height                           : 1 080 pixels
Display aspect ratio             : 16:9
Frame rate                       : 24.000 fps
Standard                         : NTSC
Color space                      : YUV
Chroma subsampling               : 4:2:0
Bit depth                        : 8 bits
Scan type                        : Progressive
Bits/(Pixel*Frame)               : 0.521
Stream size                      : 17.2 GiB (97%)
Language                         : English
Color primaries                  : BT.709-5, BT.1361, IEC 61966-2-4, SMPTE RP177
Transfer characteristics         : BT.709-5, BT.1361
Matrix coefficients              : BT.709-5, BT.1361, IEC 61966-2-4 709, SMPTE RP177
Audio #1
ID                               : 2
Format                           : AC-3
Format/Info                      : Audio Coding 3
Mode extension                   : CM (complete main)
Codec ID                         : A_AC3
Duration                         : 1h 34mn
Bit rate mode                    : Constant
Bit rate                         : 192 Kbps
Channel(s)                       : 2 channels
Channel positions                : Front: L R
Sampling rate                    : 48.0 KHz
Bit depth                        : 16 bits
Stream size                      : 130 MiB (1%)
Title                            : MVO
Language                         : Russian
Audio #2
ID                               : 3
Format                           : AC-3
Format/Info                      : Audio Coding 3
Mode extension                   : CM (complete main)
Codec ID                         : A_AC3
Duration                         : 1h 34mn
Bit rate mode                    : Constant
Bit rate                         : 192 Kbps
Channel(s)                       : 2 channels
Channel positions                : Front: L R
Sampling rate                    : 48.0 KHz
Bit depth                        : 16 bits
Stream size                      : 130 MiB (1%)
Language                         : English
Text
ID                               : 4
Format                           : UTF-8
Codec ID                         : S_TEXT/UTF8
Codec ID/Info                    : UTF-8 Plain Text
Language                         : English
Menu
00:00:00.000                     : en:00:00:00.000
00:01:47.208                     : en:00:01:47.208
00:12:32.416                     : en:00:12:32.416
00:22:14.250                     : en:00:22:14.250
00:33:50.833                     : en:00:33:50.833
00:42:18.666                     : en:00:42:18.666
00:53:24.041                     : en:00:53:24.041
01:03:48.125                     : en:01:03:48.125
01:14:12.791                     : en:01:14:12.791
01:21:28.625                     : en:01:21:28.625
01:31:05.458                     : en:01:31:05.458

Скриншоты





Показать сообщения:    

Текущее время: 10-Дек 02:12

Часовой пояс: UTC + 3


Вы не можете начинать темы
Вы не можете отвечать на сообщения
Вы не можете редактировать свои сообщения
Вы не можете удалять свои сообщения
Вы не можете голосовать в опросах
Вы не можете прикреплять файлы к сообщениям
Вы не можете скачивать файлы