[TR24][OF] Tarquinio Merula - Arpa Davidica [World Premiere Recording] (Giovanni Acciai; Nova Ars Cantandi) - 2015 (Baroque, Sacred, Orchestral, Classical)


Статистика раздачи [Обновить пиров]
Размер:  1.03 GB   |    Зарегистрирован:  10 месяцев 21 день   |    Скачан:  0 раз

Полного источника не было: Никогда

 
   
 
 
 

[Цитировать]

Tarquinio Merula - Arpa Davidica
Формат записи/Источник записи: [TR24][OF]
Наличие водяных знаков: Нет
Год издания/переиздания диска: 2015
Жанр: Baroque, Sacred, Classical
Издатель(лейбл): Archiv Produktion
Продолжительность: 01:06:24
Исполнитель:
Giovanni Acciai, Conductor,
Nova Ars Cantandi, ensemble: Collegium Vocale et Instrumentale.
Контейнер: FLAC (*.flac)
Тип рипа: tracks
Разрядность: 24/96
Количество каналов: 2.0
Источник: e-onkyo

DR-Report

foobar2000 1.3.6 / Замер динамического диапазона (DR) 1.1.1Дата отчёта: 2016-01-12 19:46:03
--------------------------------------------------------------------------------Анализ: Giovanni Acciai, Nova Ars Cantandi / Arpa Davidica--------------------------------------------------------------------------------
DR Пики RMS Продолжительность трека--------------------------------------------------------------------------------DR12 -3.90 дБ -20.65 дБ 2:30 01-Merula: Domine ad adjuvandumDR14 -1.86 дБ -21.28 дБ 4:25 02-Merula: Dixit DominusDR13 -2.82 дБ -22.09 дБ 4:36 03-Merula: ConfiteborDR14 -3.98 дБ -23.52 дБ 5:42 04-Merula: Beatus virDR14 -0.71 дБ -21.89 дБ 5:11 05-Merula: Laudate pueriDR14 -4.59 дБ -23.41 дБ 4:58 06-Merula: Laetatus sumDR14 -4.46 дБ -22.20 дБ 4:43 07-Merula: Nisi DominusDR14 -1.01 дБ -22.71 дБ 5:14 08-Merula: Lauda JerusalemDR14 -5.63 дБ -23.77 дБ 5:42 09-Merula: MagnificatDR12 -3.83 дБ -20.98 дБ 3:49 10-Merula: CredidiDR14 -6.34 дБ -24.13 дБ 4:27 11-Merula: In convertendoDR12 -5.10 дБ -21.81 дБ 2:06 12-Merula: Laudate DominumDR12 -5.79 дБ -22.25 дБ 1:44 13-Merula: Messa Concertata - KyrieDR13 -6.84 дБ -23.23 дБ 1:47 14-Merula: Messa Concertata - GloriaDR14 -3.88 дБ -23.19 дБ 5:31 15-Merula: Messa Concertata - CredoDR11 -4.68 дБ -22.28 дБ 1:42 16-Merula: Messa Concertata - Sanctus - BenedictusDR12 -7.64 дБ -23.31 дБ 2:26 17-Merula: Messa Concertata - Agnus Dei--------------------------------------------------------------------------------
Количество треков: 17Реальные значения DR: DR13
Частота: 96000 ГцКаналов: 2Разрядность: 24Битрейт: 2082 кбит/сКодек: FLAC================================================================================

Треклист

1. Domine ad adjuvandum (2:29)
2. Dixit Dominus (4:24)
3. Confitebor (4:35)
4. Beatus vir (5:41)
5. Laudate pueri (5:11)
6. Laetatus sum (4:57)
7. Nisi Dominus (4:42)
8. Lauda Jerusalem (5:14)
9. Magnificat (5:41)
10. Credidi (3:49)
11. In convertendo (4:26)
12. Laudate Dominum (2:06)
Messa Concertata:
13. Kyrie (1:44)
14. Gloria (1:47)
15. Credo (5:31)
16. Sanctus - Benedictus (1:41)
17. Agnus Dei (2:26)
[teatrix.ru].t12766.torrent 
Торрент: Зарегистрирован [ 2016-01-12 21:00 ] · 746226E52D29259F601A0916889C8518C21E9435

Скачать .torrent

Скачать

12 KB

Статус: проверено
Скачан: 0 раз
Размер: 1.03 GB
terms.php



Быстрый ответ

Имя:

      
Для отправки сообщений необходимо включить JavaScript
Показать сообщения:    

Текущее время: 02-Дек 21:11

Часовой пояс: UTC + 3


Вы можете начинать темы
Вы можете отвечать на сообщения
Вы не можете редактировать свои сообщения
Вы не можете удалять свои сообщения
Вы не можете голосовать в опросах
Вы не можете прикреплять файлы к сообщениям
Вы можете скачивать файлы