Рыцарь кубков / Knight of Cups (Терренс Малик / Terrence Malick) [2015, США, драма, мелодрама, HDRip] DVO


 

[Цитировать]

Рыцарь кубков
Knight of Cups
-Год выпуска: 2015
Страна: США
Жанр: Драма, Мелодрама
Продолжительность: 01:58:24
Перевод: Любительский (двухголосый закадровый) [Parovoz Production]
Субтитры: нет
Оригинальная аудиодорожка: нет-Режиссер: Терренс Малик / Terrence Malick-В ролях: Кристиан Бэйл, Кейт Бланшетт, Натали Портман, Брайан Деннехи, Антонио Бандерас, Майкл Уинкотт, Фрида Пинто, Уэс Бентли, Изабель Лукас, Тереза Палмер-Описание: Сценарист, живущий в Лос-Анджелесе пытается разобраться в странных событиях, происходящих вокруг него.- -Семпл: http://multi-up.com/1082944-Качество видео: HDRip (исходник BDRip 720p)
Формат видео: AVI
Видео: 720x304 (2.37:1), 23.976 fps, XviD build 73 ~1552 kbps avg, 0.30 bit/pixel
Аудио: 48 kHz, AC3 Dolby Digital, 2/0 (L,R) ch, ~192 kbps-

MediaInfo

General
Complete name : Knight.of.Cups.2015.L2.HDRip.avi
Format : AVI
Format/Info : Audio Video Interleave
File size : 1.45 GiB
Duration : 1h 58mn
Overall bit rate : 1 754 Kbps
Writing application : VirtualDubMod 1.5.10.3 | www.virtualdub-fr.org || (build 2550/release)
Writing library : VirtualDubMod build 2550/release
Video
ID : 0
Format : MPEG-4 Visual
Format profile : Advanced Simple@L5
Format settings, BVOP : 1
Format settings, QPel : No
Format settings, GMC : No warppoints
Format settings, Matrix : Custom
Codec ID : XVID
Codec ID/Hint : XviD
Duration : 1h 58mn
Bit rate : 1 552 Kbps
Width : 720 pixels
Height : 304 pixels
Display aspect ratio : 2.35:1
Frame rate : 23.976 (23976/1000) fps
Color space : YUV
Chroma subsampling : 4:2:0
Bit depth : 8 bits
Scan type : Progressive
Compression mode : Lossy
Bits/(Pixel*Frame) : 0.296
Stream size : 1.28 GiB (89%)
Writing library : XviD 73
Audio
ID : 1
Format : AC-3
Format/Info : Audio Coding 3
Mode extension : CM (complete main)
Format settings, Endianness : Big
Codec ID : 2000
Duration : 1h 58mn
Bit rate mode : Constant
Bit rate : 192 Kbps
Channel(s) : 2 channels
Channel positions : Front: L R
Sampling rate : 48.0 KHz
Frame rate : 31.250 fps (1536 spf)
Compression mode : Lossy
Stream size : 163 MiB (11%)
Alignment : Split accross interleaves
Interleave, duration : 42 ms (1.00 video frame)
Interleave, preload duratio : 500 ms

Скриншоты






Показать сообщения:    

Текущее время: 05-Дек 03:28

Часовой пояс: UTC + 3


Вы не можете начинать темы
Вы не можете отвечать на сообщения
Вы не можете редактировать свои сообщения
Вы не можете удалять свои сообщения
Вы не можете голосовать в опросах
Вы не можете прикреплять файлы к сообщениям
Вы не можете скачивать файлы