(Classical) Jean Sibelius - Swanwhite; The Lizard; A Lonely Ski Trail; The Countess’ Portrait - Riko Eklundh, Turku Philharmonic Orchestra, Leif Segerstam - 2015, FLAC (image+.cue) lossless


 

[Цитировать]

Jean Sibelius - Swanwhite; The Lizard; A Lonely Ski Trail; The Countess’ Portrait - Riko Eklundh, Turku Philharmonic Orchestra, Leif Segerstam
Жанр: Classical
Год издания диска: 2015
Издатель (лейбл): Naxos
Номер по каталогу: 8.573341
Дата записи: 2014
Аудиокодек: FLAC
Тип рипа: image+.cue
Битрейт аудио: lossless
Продолжительность: 63:34
Источник: собственный рип
Наличие сканов в содержимом раздачи: да
Треклист:
Jean Sibelius (1865-1957)
[1]-[14] Svanevit (Swanwhite) – Complete Incidental Music, JS189 (1908)
[15]-[16] Ödlan (The Lizard) – Complete Incidental Music, Op. 8 (1909)
[17] Ett ensamt skidspår (A Lonely Ski Trail), JS77b (1948)
[18] Grevinnans konterfej (The Countess’ Portrait), JS88 (1905)
Исполнители:
Riko Eklundh narrator ([17], [18])
Turku Philharmonic Orchestra
Leif Segerstam

Лог создания рипа

Exact Audio Copy V1.1 from 23. June 2015
EAC extraction logfile from 2. January 2016, 17:23
Turku Philharmonic Orchestra, Leif Segerstam / Sibelius - Swanwhite; The Lizard
Used drive : HL-DT-STDVDRAM GU70N Adapter: 1 ID: 0
Read mode : SecureUtilize accurate stream : YesDefeat audio cache : YesMake use of C2 pointers : No
Read offset correction : 48Overread into Lead-In and Lead-Out : NoFill up missing offset samples with silence : YesDelete leading and trailing silent blocks : NoNull samples used in CRC calculations : YesUsed interface : Native Win32 interface for Win NT & 2000
Used output format : User Defined EncoderSelected bitrate : 128 kBit/sQuality : HighAdd ID3 tag : NoCommand line compressor : C:\Program Files (x86)\Exact Audio Copy\Flac\flac.exeAdditional command line options : -V -8 -T "Date=%year%" -T "Genre=%genre%" %source%
TOC of the extracted CD
Track | Start | Length | Start sector | End sector --------------------------------------------------------- 1 | 0:00.00 | 0:16.16 | 0 | 1215 2 | 0:16.16 | 2:51.29 | 1216 | 14069 3 | 3:07.45 | 0:19.34 | 14070 | 15528 4 | 3:27.04 | 3:35.70 | 15529 | 31723 5 | 7:02.74 | 0:19.59 | 31724 | 33207 6 | 7:22.58 | 5:49.72 | 33208 | 59454 7 | 13:12.55 | 2:21.32 | 59455 | 70061 8 | 15:34.12 | 2:46.49 | 70062 | 82560 9 | 18:20.61 | 2:25.58 | 82561 | 93493 10 | 20:46.44 | 2:51.32 | 93494 | 106350 11 | 23:38.01 | 1:10.23 | 106351 | 111623 12 | 24:48.24 | 1:33.28 | 111624 | 118626 13 | 26:21.52 | 1:35.70 | 118627 | 125821 14 | 27:57.47 | 1:35.66 | 125822 | 133012 15 | 29:33.38 | 3:37.17 | 133013 | 149304 16 | 33:10.55 | 22:12.00 | 149305 | 249204 17 | 55:22.55 | 3:44.40 | 249205 | 266044 18 | 59:07.20 | 4:24.55 | 266045 | 285899
Range status and errors
Selected range
Filename C:\temp\Naxos_8.573341 - Sibelius - Swanwhite; The Lizard\Sibelius - Swanwhite; The Lizard.wav
Peak level 97.4 % Extraction speed 2.1 X Range quality 99.9 % Test CRC 6916892D Copy CRC 6916892D Copy OK
No errors occurred
AccurateRip summary
Track 1 not present in databaseTrack 2 not present in databaseTrack 3 not present in databaseTrack 4 not present in databaseTrack 5 not present in databaseTrack 6 not present in databaseTrack 7 not present in databaseTrack 8 not present in databaseTrack 9 not present in databaseTrack 10 not present in databaseTrack 11 not present in databaseTrack 12 not present in databaseTrack 13 not present in databaseTrack 14 not present in databaseTrack 15 not present in databaseTrack 16 not present in databaseTrack 17 not present in databaseTrack 18 not present in database
None of the tracks are present in the AccurateRip database
End of status report
==== Log checksum 32FB400A9C9CFFA9D46E549CD54325273046B551578054E61E896DB6848787BF ====



Показать сообщения:    

Текущее время: 08-Дек 09:03

Часовой пояс: UTC + 3


Вы не можете начинать темы
Вы не можете отвечать на сообщения
Вы не можете редактировать свои сообщения
Вы не можете удалять свои сообщения
Вы не можете голосовать в опросах
Вы не можете прикреплять файлы к сообщениям
Вы не можете скачивать файлы