Милу в мае / Milou en mai (Луи Маль / Louis Malle) [1990, Франция, Италия, мелодрама, комедия, BDRip 720p] MVO (Cinema Prestige) + DVO (Пифагор) + Original (Fre) + Sub (Rus, Eng)


 

[Цитировать]

Милу в мае / Milou en mai- Страна: Франция, Италия
Жанр: мелодрама, комедия
Год выпуска: 1990
Продолжительность: 01:46:47-Перевод №1: Профессиональный (многоголосый, закадровый) - Cinema Prestige
Перевод №2: Профессиональный (двухголосый, закадровый) - студия "Пифагор"
Оригинальная аудиодорожка: French
Cубтитры: Русские (полные - Cinema Prestige), English (full)
Навигация по главам: присутствует - 12 глав-Режиссер: Луи Маль / Louis Malle
В ролях: Миу-Миу, Мишель Пикколи, Мишель Дюшоссуа, Полетт Дюбо, Бруно Каретт, Харриет Уолтер, Жанна Арри, Мартина Готье, Рено Дэннер, Франсуа Берлеан, Доминик Блан-Описание: Весной 1968 года, когда Париж захлестнула студенческая революция, в далекой провинции умерла мадам Вьезак. Ее сын Эмиль, или по-домашнему Милу, собирает близких родственников, чтобы проводить мать в последний путь. Ее смерть становится не только поводом для семейных разборок за наследство, но и выяснением отношений между родственниками и даже сопричастности к событиям, происходящим в Париже…-
Download sample-Качество видео: BDRip 720p | исх. BDRemux 1080p
Формат: MKV-Видео: 1 194x720 (5:3), 24.000 fps, H.264, 11601.41 kb/s
Аудио №1: 48.0 kHz, AC3 Dolby Digital, 2/0 (L,R) ch, ~192 kbps avg | Профессиональный (многоголосый, закадровый) - Cinema Prestige
Аудио №2: 48.0 kHz, AC3 Dolby Digital, 1/0 (C) ch, ~192 kbps avg | Профессиональный (двухголосый, закадровый) - студия "Пифагор"
Аудио №3: 48.0 kHz, FLAC, 2/0 (L,R) ch,, ~697 kbps avg | Italian
Субтитры №1: Русские (полные - Cinema Prestige) | *.srt
Субтитры №2: English (full) | *.srt-

MediaInfo

General
Unique ID : 198706843133057535824338606580230331558 (0x957D8BC25C60E9D1859CFE8D307D1CA6)
Complete name : D:\Фильмы\Рипы\Milou en mai.1990.BDRip 720p.eFK tRuAVC.mkv
Format : Matroska
Format version : Version 4 / Version 2
File size : 9.46 GiB
Duration : 1h 46mn
Overall bit rate mode : Variable
Overall bit rate : 12.7 Mbps
Movie name : Милу в мае / Milou en mai (1990) - Release for rutracker
Encoded date : UTC 2015-12-22 06:07:14
Writing application : mkvmerge v7.6.0 ('Garden of Dreams') 64bit built on Feb 8 2015 13:04:34
Writing library : libebml v1.3.1 + libmatroska v1.4.2
Attachements : cover.png
DURATION : 01:46:07.334000000
NUMBER_OF_FRAMES : 1208
NUMBER_OF_BYTES : 36965
_STATISTICS_WRITING_APP : mkvmerge v7.6.0 ('Garden of Dreams') 64bit built on Feb 8 2015 13:04:34
_STATISTICS_WRITING_DATE_UT : 2015-12-22 06:07:14
_STATISTICS_TAGS : BPS DURATION NUMBER_OF_FRAMES NUMBER_OF_BYTES
Video
ID : 1
Format : AVC
Format/Info : Advanced Video Codec
Format profile : High@L4.1
Format settings, CABAC : Yes
Format settings, ReFrames : 8 frames
Codec ID : V_MPEG4/ISO/AVC
Duration : 1h 46mn
Width : 1 194 pixels
Height : 720 pixels
Display aspect ratio : 5:3
Frame rate mode : Constant
Frame rate : 24.000 fps
Color space : YUV
Chroma subsampling : 4:2:0
Bit depth : 8 bits
Scan type : Progressive
Title : eFK tRuAVC
Writing library : x264 core 148 r2638kMod 7599210
Encoding settings : cabac=1 / ref=8 / deblock=1:-3:-3 / analyse=0x3:0x113 / me=umh / subme=11 / psy=1 / fade_compensate=0.00 / psy_rd=1.10:0.05 / mixed_ref=1 / me_range=48 / chroma_me=1 / trellis=2 / 8x8dct=1 / cqm=0 / deadzone=21,11 / fast_pskip=0 / chroma_qp_offset=-3 / threads=12 / lookahead_threads=3 / sliced_threads=0 / nr=0 / decimate=1 / interlaced=0 / bluray_compat=0 / constrained_intra=0 / fgo=0 / bframes=16 / b_pyramid=2 / b_adapt=2 / b_bias=0 / direct=3 / weightb=1 / open_gop=0 / weightp=2 / keyint=250 / keyint_min=24 / scenecut=40 / intra_refresh=0 / rc_lookahead=60 / rc=crf / mbtree=0 / crf=15.3000 / qcomp=0.60 / qpmin=0 / qpmax=69 / qpstep=4 / vbv_maxrate=62500 / vbv_bufsize=78125 / crf_max=0.0 / nal_hrd=none / filler=0 / ip_ratio=1.40 / pb_ratio=1.30 / aq=1:0.75
Language : French
Default : Yes
Forced : No
Color range : Limited
Color primaries : BT.709
Transfer characteristics : BT.709
Matrix coefficients : BT.709
DURATION : 01:46:47.584000000
NUMBER_OF_FRAMES : 153782
NUMBER_OF_BYTES : 9292121647
_STATISTICS_WRITING_APP : mkvmerge v7.6.0 ('Garden of Dreams') 64bit built on Feb 8 2015 13:04:34
_STATISTICS_WRITING_DATE_UT : 2015-12-22 06:07:14
_STATISTICS_TAGS : BPS DURATION NUMBER_OF_FRAMES NUMBER_OF_BYTES
Audio #1
ID : 2
Format : AC-3
Format/Info : Audio Coding 3
Mode extension : CM (complete main)
Format settings, Endianness : Big
Codec ID : A_AC3
Duration : 1h 46mn
Bit rate mode : Constant
Bit rate : 192 Kbps
Channel(s) : 2 channels
Channel positions : Front: L R
Sampling rate : 48.0 KHz
Compression mode : Lossy
Stream size : 147 MiB (2%)
Title : Профессиональный (многоголосый, закадровый) - Cinema Prestige
Language : Russian
Default : Yes
Forced : No
Audio #2
ID : 3
Format : AC-3
Format/Info : Audio Coding 3
Mode extension : CM (complete main)
Format settings, Endianness : Big
Codec ID : A_AC3
Duration : 1h 46mn
Bit rate mode : Constant
Bit rate : 192 Kbps
Channel(s) : 1 channel
Channel positions : Front: C
Sampling rate : 48.0 KHz
Compression mode : Lossy
Stream size : 147 MiB (2%)
Title : Профессиональный (двухголосый, закадровый) - студия "Пифагор"
Language : Russian
Default : No
Forced : No
Audio #3
ID : 4
Format : FLAC
Format/Info : Free Lossless Audio Codec
Codec ID : A_FLAC
Duration : 1h 46mn
Bit rate mode : Variable
Channel(s) : 2 channels
Sampling rate : 48.0 KHz
Bit depth : 24 bits
Writing library : libFLAC 1.2.1 (UTC 2007-09-17)
Language : French
Default : No
Forced : No
Text #1
ID : 5
Format : UTF-8
Codec ID : S_TEXT/UTF8
Codec ID/Info : UTF-8 Plain Text
Title : полные - Cinema Prestige
Language : Russian
Default : No
Forced : No
Text #2
ID : 6
Format : UTF-8
Codec ID : S_TEXT/UTF8
Codec ID/Info : UTF-8 Plain Text
Title : full
Language : English
Default : No
Forced : No
Menu
00:00:00.000 : en:1
00:10:23.541 : en:2
00:15:54.375 : en:3
00:22:13.791 : en:4
00:32:35.041 : en:5
00:43:16.625 : en:6
00:56:53.625 : en:7
01:09:19.958 : en:8
01:16:04.750 : en:9
01:26:26.041 : en:10
01:37:23.958 : en:11
01:44:52.458 : en:12

x264 log

x264 [info]: frame I:763 Avg QP:16.07 size:182663
x264 [info]: frame P:29505 Avg QP:17.60 size:104945
x264 [info]: frame B:123514 Avg QP:19.78 size: 49034
x264 [info]: consecutive B-frames: 1.0% 1.1% 3.5% 13.8% 14.8% 55.1% 5.8% 1.5% 1.4% 0.5% 0.5% 0.4% 0.3% 0.2% 0.0% 0.0% 0.1%
x264 [info]: mb I I16..4: 6.3% 74.6% 19.2%
x264 [info]: mb P I16..4: 0.6% 19.0% 1.6% P16..4: 23.1% 34.5% 19.8% 0.0% 0.0% skip: 1.4%
x264 [info]: mb B I16..4: 0.1% 4.3% 0.1% B16..8: 33.0% 26.8% 8.3% direct:14.9% skip:12.5% L0:39.6% L1:35.6% BI:24.8%
x264 [info]: 8x8 transform intra:91.8% inter:52.1%
x264 [info]: direct mvs spatial:100.0% temporal:0.0%
x264 [info]: coded y,uvDC,uvAC intra: 97.1% 95.3% 89.7% inter: 62.1% 49.2% 21.8%
x264 [info]: i16 v,h,dc,p: 29% 10% 22% 39%
x264 [info]: i8 v,h,dc,ddl,ddr,vr,hd,vl,hu: 11% 9% 15% 9% 11% 11% 11% 11% 13%
x264 [info]: i4 v,h,dc,ddl,ddr,vr,hd,vl,hu: 8% 9% 9% 9% 15% 13% 13% 11% 13%
x264 [info]: i8c dc,h,v,p: 57% 15% 14% 14%
x264 [info]: Weighted P-Frames: Y:3.4% UV:2.3%
x264 [info]: ref P L0: 36.1% 10.7% 20.6% 8.6% 8.4% 5.5% 6.0% 3.8% 0.3% 0.0%
x264 [info]: ref B L0: 73.3% 12.5% 6.0% 3.6% 2.6% 1.4% 0.6%
x264 [info]: ref B L1: 94.2% 5.8%
x264 [info]: kb/s:11601.40
x264 [total]: encoded 153782 frames, 5.27 fps, 11601.41 kb/s, duration 8:06:29.20

Comparison

Source

Encode
  • За перевод студии "Пифагор" спасибо клубу Артхаус.



Показать сообщения:    

Текущее время: 06-Дек 17:05

Часовой пояс: UTC + 3


Вы не можете начинать темы
Вы не можете отвечать на сообщения
Вы не можете редактировать свои сообщения
Вы не можете удалять свои сообщения
Вы не можете голосовать в опросах
Вы не можете прикреплять файлы к сообщениям
Вы не можете скачивать файлы