(Classical/Cello) Леонид Горохов - Виолончель (Л.Боккерини, Гайдн, Тортелье, Кодай, Шостакович) - 1991, FLAC (tracks+.cue) lossless


 

[Цитировать]

Леонид Горохов - Виолончель (Л.Боккерини, Гайдн, Тортелье, Кодай, Шостакович)
Жанр: Classical/Cello
Страна-производитель диска: СССР
Год издания диска: 1991
Издатель (лейбл): Мелодия
Номер по каталогу: SUCD 11-00304
Дата записи: 1987, 1988
Аудиокодек: FLAC
Тип рипа: tracks+.cue
Битрейт аудио: lossless
Продолжительность: 68.45
Источник: собственный рип
Наличие сканов в содержимом раздачи: да
Треклист:
01. L. Boccherini - Sonata No.6 in A major - 1. Adagio
02. L. Boccherini - Sonata No.6 in A major - 2. Allegro
03. L. Boccherini - Sonata No.6 in A major - 3. Affettuoso
04. Joseph Haydn - Divertimento in D major - 1. Adagio
05. J. Haydn - Divertimento in D major - 2. Menuet
06. J. Haydn - Divertimento in D major - 3. Allegro di molto
07. P. Tortelier - Sonata for Cello and Piano ''Bucephale'' - 1. L` indompte
08. P. Tortelier - Sonata for Cello and Piano ''Bucephale'' - 2. Au grand Soleil
09. P. Tortelier - Sonata for Cello and Piano ''Bucephale'' - 3. L` assaut
10. Zoltan Kodaly - Sonata for Cello and Piano, Op.4 - 1. Fantasia. Adagio di molto
11. Z. Kodaly - Sonata for Cello and Piano, Op.4 - 2. Allegro con spirito
12. Dmitri Shostakovich - Sonata for Cello and Piano in D minor, Op.40 - 1. Allegro non troppo
13. D. Shostakovich - Sonata for Cello and Piano in D minor, Op.40 - 2. Allegro
14. D. Shostakovich - Sonata for Cello and Piano in D minor, Op.40 - 3. Largo
15. D. Shostakovich - Sonata for Cello and Piano in D minor, Op.40 - 4. Allegro
Исполнители:
Леонид Горохов, виолончель
Ирина Никитина, фортепиано

Лог создания рипа

Exact Audio Copy V1.1 from 23. June 2015
Отчёт EAC об извлечении, выполненном 13. января 2016, 0:48
Leonid Gorokhov / Cello
Дисковод: HL-DT-STDVDRAM GH24NSD0 Adapter: 1 ID: 0
Режим чтения : ДостоверностьИспользование точного потока : ДаОтключение кэша аудио : ДаИспользование указателей C2 : Нет
Коррекция смещения при чтении : 6Способность читать области Lead-in и Lead-out : НетЗаполнение пропущенных сэмплов тишиной : ДаУдаление блоков с тишиной в начале и конце : НетПри вычислениях CRC использовались нулевые сэмплы : ДаИнтерфейс : Встроенный Win32-интерфейс для Win NT/2000Обработка зазоров : Добавлено к предыдущему треку
Выходной формат : Пользовательский кодировщикВыбранный битрейт : 768 kBit/sКачество : ВысокийДобавление ID3-тега : НетУтилита сжатия : C:\Program Files (x86)\Exact Audio Copy\FLAC\FLAC.EXEДополнительные параметры : -6 -V -T "ARTIST=%artist%" -T "TITLE=%title%" -T "ALBUM=%albumtitle%" -T "DATE=%year%" -T "TRACKNUMBER=%tracknr%" -T "GENRE=%genre%" -T "COMMENT=%comment%" -T "BAND=%albuminterpret%" -T "ALBUMARTIST=%albuminterpret%" -T "COMPOSER=%composer%" %haslyrics%--tag-from-file=LYRICS="%lyricsfile%"%haslyrics% -T "DISCNUMBER=%cdnumber%" -T "TOTALDISCS=%totalcds%" -T "TOTALTRACKS=%numtracks%" %hascover%--picture="%coverfile%"%hascover% %source% -o %dest%
TOC извлечённого CD
Трек | Старт | Длительность | Начальный сектор | Конечный сектор --------------------------------------------------------------------- 1 | 0:00.00 | 3:26.50 | 0 | 15499 2 | 3:26.50 | 4:23.30 | 15500 | 35254 3 | 7:50.05 | 2:39.70 | 35255 | 47249 4 | 10:30.00 | 3:45.55 | 47250 | 64179 5 | 14:15.55 | 2:46.45 | 64180 | 76674 6 | 17:02.25 | 2:33.23 | 76675 | 88172 7 | 19:35.48 | 2:56.37 | 88173 | 101409 8 | 22:32.10 | 3:07.65 | 101410 | 115499 9 | 25:40.00 | 3:31.23 | 115500 | 131347 10 | 29:11.23 | 7:56.45 | 131348 | 167092 11 | 37:07.68 | 9:02.17 | 167093 | 207759 12 | 46:10.10 | 8:34.70 | 207760 | 246379 13 | 54:45.05 | 3:04.43 | 246380 | 260222 14 | 57:49.48 | 7:45.02 | 260223 | 295099 15 | 65:34.50 | 4:03.05 | 295100 | 313329
Трек 1
Имя файла Z:\Music\classic\lossless\Leonid Gorokhov\1991 - Cello\01. Sonata No.6 in A major - 1. Adagio.wav
Длина предзазора 0:00:02.00
Пиковый уровень 21.7 % Скорость извлечения 3.7 X Качество трека 100.0 % CRC теста 6570F07A CRC копии 6570F07A Копирование... OK
Трек 2
Имя файла Z:\Music\classic\lossless\Leonid Gorokhov\1991 - Cello\02. Sonata No.6 in A major - 2. Allegro.wav
Длина предзазора 0:00:03.45
Пиковый уровень 37.3 % Скорость извлечения 4.6 X Качество трека 100.0 % CRC теста DFE5F6BC CRC копии DFE5F6BC Копирование... OK
Трек 3
Имя файла Z:\Music\classic\lossless\Leonid Gorokhov\1991 - Cello\03. Sonata No.6 in A major - 3. Affettuoso.wav
Длина предзазора 0:00:04.07
Пиковый уровень 36.3 % Скорость извлечения 4.2 X Качество трека 100.0 % CRC теста 56582711 CRC копии 56582711 Копирование... OK
Трек 4
Имя файла Z:\Music\classic\lossless\Leonid Gorokhov\1991 - Cello\04. Divertimento in D major - 1. Adagio.wav
Длина предзазора 0:00:02.70
Пиковый уровень 28.1 % Скорость извлечения 4.5 X Качество трека 99.9 % CRC теста 173BEC18 CRC копии 173BEC18 Копирование... OK
Трек 5
Имя файла Z:\Music\classic\lossless\Leonid Gorokhov\1991 - Cello\05. Divertimento in D major - 2. Menuet.wav
Длина предзазора 0:00:03.55
Пиковый уровень 40.3 % Скорость извлечения 4.9 X Качество трека 100.0 % CRC теста 0434CC9C CRC копии 0434CC9C Копирование... OK
Трек 6
Имя файла Z:\Music\classic\lossless\Leonid Gorokhov\1991 - Cello\06. Divertimento in D major - 3. Allegro di molto.wav
Длина предзазора 0:00:03.20
Пиковый уровень 71.3 % Скорость извлечения 4.7 X Качество трека 100.0 % CRC теста 274EF31F CRC копии 274EF31F Копирование... OK
Трек 7
Имя файла Z:\Music\classic\lossless\Leonid Gorokhov\1991 - Cello\07. Sonata for Cello and Piano ''Bucephale'' - 1. L` indompte.wav
Длина предзазора 0:00:02.38
Пиковый уровень 70.3 % Скорость извлечения 4.9 X Качество трека 100.0 % CRC теста F9463390 CRC копии F9463390 Копирование... OK
Трек 8
Имя файла Z:\Music\classic\lossless\Leonid Gorokhov\1991 - Cello\08. Sonata for Cello and Piano ''Bucephale'' - 2. Au grand Soleil.wav
Длина предзазора 0:00:03.10
Пиковый уровень 17.4 % Скорость извлечения 4.7 X Качество трека 99.9 % CRC теста E29B198F CRC копии E29B198F Копирование... OK
Трек 9
Имя файла Z:\Music\classic\lossless\Leonid Gorokhov\1991 - Cello\09. Sonata for Cello and Piano ''Bucephale'' - 3. L` assaut.wav
Длина предзазора 0:00:02.70
Пиковый уровень 49.1 % Скорость извлечения 5.5 X Качество трека 100.0 % CRC теста 892E3A36 CRC копии 892E3A36 Копирование... OK
Трек 10
Имя файла Z:\Music\classic\lossless\Leonid Gorokhov\1991 - Cello\10. Sonata for Cello and Piano, Op.4 - 1. Fantasia. Adagio di molto.wav
Длина предзазора 0:00:03.18
Пиковый уровень 60.6 % Скорость извлечения 6.3 X Качество трека 100.0 % CRC теста 8903C243 CRC копии 8903C243 Копирование... OK
Трек 11
Имя файла Z:\Music\classic\lossless\Leonid Gorokhov\1991 - Cello\11. Sonata for Cello and Piano, Op.4 - 2. Allegro con spirito.wav
Длина предзазора 0:00:03.63
Пиковый уровень 50.2 % Скорость извлечения 6.8 X Качество трека 100.0 % CRC теста 6A6EF28E CRC копии 6A6EF28E Копирование... OK
Трек 12
Имя файла Z:\Music\classic\lossless\Leonid Gorokhov\1991 - Cello\12. Sonata for Cello and Piano in D minor, Op.40 - 1. Allegro non troppo.wav
Длина предзазора 0:00:03.00
Пиковый уровень 37.8 % Скорость извлечения 6.7 X Качество трека 99.9 % CRC теста 7EA570A3 CRC копии 7EA570A3 Копирование... OK
Трек 13
Имя файла Z:\Music\classic\lossless\Leonid Gorokhov\1991 - Cello\13. Sonata for Cello and Piano in D minor, Op.40 - 2. Allegro.wav
Длина предзазора 0:00:04.50
Пиковый уровень 60.1 % Скорость извлечения 5.7 X Качество трека 99.9 % CRC теста 7FAC73BA CRC копии 7FAC73BA Копирование... OK
Трек 14
Имя файла Z:\Music\classic\lossless\Leonid Gorokhov\1991 - Cello\14. Sonata for Cello and Piano in D minor, Op.40 - 3. Largo.wav
Длина предзазора 0:00:03.48
Пиковый уровень 48.0 % Скорость извлечения 6.6 X Качество трека 100.0 % CRC теста 63559045 CRC копии 63559045 Копирование... OK
Трек 15
Имя файла Z:\Music\classic\lossless\Leonid Gorokhov\1991 - Cello\15. Sonata for Cello and Piano in D minor, Op.40 - 4. Allegro.wav
Длина предзазора 0:00:03.40
Пиковый уровень 57.1 % Скорость извлечения 6.2 X Качество трека 100.0 % CRC теста DEE8B659 CRC копии DEE8B659 Копирование... OK
Ошибок не произошло
Конец отчёта

Содержание индексной карты (.CUE)

REM GENRE ClassicalREM DATE 1991REM DISCID D110510FREM COMMENT "ExactAudioCopy v1.1"PERFORMER "Leonid Gorokhov"TITLE "Cello"FILE "01. Sonata No.6 in A major - 1. Adagio.wav" WAVE TRACK 01 AUDIO TITLE "Sonata No.6 in A major - 1. Adagio" PERFORMER "Leonid Gorokhov" INDEX 01 00:00:00 TRACK 02 AUDIO TITLE "Sonata No.6 in A major - 2. Allegro" PERFORMER "Leonid Gorokhov" INDEX 00 03:23:05FILE "02. Sonata No.6 in A major - 2. Allegro.wav" WAVE INDEX 01 00:00:00 TRACK 03 AUDIO TITLE "Sonata No.6 in A major - 3. Affettuoso" PERFORMER "Leonid Gorokhov" INDEX 00 04:19:23FILE "03. Sonata No.6 in A major - 3. Affettuoso.wav" WAVE INDEX 01 00:00:00 TRACK 04 AUDIO TITLE "Divertimento in D major - 1. Adagio" PERFORMER "Leonid Gorokhov" INDEX 00 02:37:00FILE "04. Divertimento in D major - 1. Adagio.wav" WAVE INDEX 01 00:00:00 TRACK 05 AUDIO TITLE "Divertimento in D major - 2. Menuet" PERFORMER "Leonid Gorokhov" INDEX 00 03:42:00FILE "05. Divertimento in D major - 2. Menuet.wav" WAVE INDEX 01 00:00:00 TRACK 06 AUDIO TITLE "Divertimento in D major - 3. Allegro di molto" PERFORMER "Leonid Gorokhov" INDEX 00 02:43:25FILE "06. Divertimento in D major - 3. Allegro di molto.wav" WAVE INDEX 01 00:00:00 TRACK 07 AUDIO TITLE "Sonata for Cello and Piano 'Bucephale' - 1. L` indompte" PERFORMER "Leonid Gorokhov" INDEX 00 02:30:60FILE "07. Sonata for Cello and Piano ''Bucephale'' - 1. L` indompte.wav" WAVE INDEX 01 00:00:00 TRACK 08 AUDIO TITLE "Sonata for Cello and Piano 'Bucephale' - 2. Au grand Soleil" PERFORMER "Leonid Gorokhov" INDEX 00 02:53:27FILE "08. Sonata for Cello and Piano ''Bucephale'' - 2. Au grand Soleil.wav" WAVE INDEX 01 00:00:00 TRACK 09 AUDIO TITLE "Sonata for Cello and Piano 'Bucephale' - 3. L` assaut" PERFORMER "Leonid Gorokhov" INDEX 00 03:04:70FILE "09. Sonata for Cello and Piano ''Bucephale'' - 3. L` assaut.wav" WAVE INDEX 01 00:00:00 TRACK 10 AUDIO TITLE "Sonata for Cello and Piano, Op.4 - 1. Fantasia. Adagio di molto" PERFORMER "Leonid Gorokhov" INDEX 00 03:28:05FILE "10. Sonata for Cello and Piano, Op.4 - 1. Fantasia. Adagio di molto.wav" WAVE INDEX 01 00:00:00 TRACK 11 AUDIO TITLE "Sonata for Cello and Piano, Op.4 - 2. Allegro con spirito" PERFORMER "Leonid Gorokhov" INDEX 00 07:52:57FILE "11. Sonata for Cello and Piano, Op.4 - 2. Allegro con spirito.wav" WAVE INDEX 01 00:00:00 INDEX 02 05:57:25 TRACK 12 AUDIO TITLE "Sonata for Cello and Piano in D minor, Op.40 - 1. Allegro non troppo" PERFORMER "Leonid Gorokhov" INDEX 00 08:59:17FILE "12. Sonata for Cello and Piano in D minor, Op.40 - 1. Allegro non troppo.wav" WAVE INDEX 01 00:00:00 TRACK 13 AUDIO TITLE "Sonata for Cello and Piano in D minor, Op.40 - 2. Allegro" PERFORMER "Leonid Gorokhov" INDEX 00 08:30:20FILE "13. Sonata for Cello and Piano in D minor, Op.40 - 2. Allegro.wav" WAVE INDEX 01 00:00:00 TRACK 14 AUDIO TITLE "Sonata for Cello and Piano in D minor, Op.40 - 3. Largo" PERFORMER "Leonid Gorokhov" INDEX 00 03:00:70FILE "14. Sonata for Cello and Piano in D minor, Op.40 - 3. Largo.wav" WAVE INDEX 01 00:00:00 TRACK 15 AUDIO TITLE "Sonata for Cello and Piano in D minor, Op.40 - 4. Allegro" PERFORMER "Leonid Gorokhov" INDEX 00 07:41:37FILE "15. Sonata for Cello and Piano in D minor, Op.40 - 4. Allegro.wav" WAVE INDEX 01 00:00:00



Показать сообщения:    

Текущее время: 08-Дек 03:15

Часовой пояс: UTC + 3


Вы не можете начинать темы
Вы не можете отвечать на сообщения
Вы не можете редактировать свои сообщения
Вы не можете удалять свои сообщения
Вы не можете голосовать в опросах
Вы не можете прикреплять файлы к сообщениям
Вы не можете скачивать файлы