(Score) Эдвард руки-ножницы / Edward Scissorhands (Expanded) (by Danny Elfman) - 2015 (1990), FLAC (tracks+.cue), lossless


Статистика раздачи [Обновить пиров]
Размер:  430 MB   |    Зарегистрирован:  10 месяцев 21 день   |    Скачан:  0 раз

Полного источника не было: Никогда

 
   
 
 
 

[Цитировать]

Эдвард руки-ножницы / Edward Scissorhands (Expanded)-Жанр: Score
Композитор: Danny Elfman
Год выпуска диска: 2015
Год выпуска фильма: 1990
Производитель диска: USA
Издатель (лейбл): Intrada
Номер по каталогу: INT 7146-Аудиокодек: FLAC (*.flac)
Тип рипа: tracks+.cue
Битрейт аудио: lossless
Продолжительность: 01:11:26
Источник: собственный рип
Наличие сканов в содержимом раздачи: да, 600 dpi-Ссылки: Кинопоиск | IMDB | Wikipedia | SoundtrackCollector
MP3: (Score) Эдвард руки-ножницы / Edward Scissorhands (Expanded) (by Danny Elfman) - 2015 (1990), MP3 (tracks) 320 kbps

Треклист

01. Introduction (Titles) [0:02:51.73]
02. Storytime [0:02:36.53]
03. Castle On The Hill [0:06:23.72]
04. Beautiful New World / Home Sweet Home [0:02:41.69]
05. Ballet De Suburbia (Suite) [0:01:17.24]
06. Esmeralda [0:00:27.21]
07. The Cookie Factory [0:02:18.22]
08. Etiquette Lesson [0:01:38.19]
09. Housewives / Esmeralda 2 / Paper Dolls [0:01:23.23]
10. Edwardo The Barber [0:03:19.16]
11. Kim At The Mall / Talk Show [0:01:45.13]
12. Cloth World [0:00:50.68]
13. The Heist [0:02:52.63]
14. The Tide Chages / Kim Spies / Edward's Rage [0:03:29.65]
15. Ice Dance [0:01:47.19]
16. Confrontation [0:01:12.40]
17. Edward's Rampage [0:00:36.30]
18. Paranoia / Final Cut / Devil Bush [0:03:06.12]
19. Death! [0:03:32.54]
20. The Plot Unfolds [0:02:59.44]
21. The Final Confrontation [0:03:10.32]
22. Farewell [0:02:46.00]
23. The Grand Finale [0:03:24.58]
24. The End [0:04:53.10]
25. Trailer [0:02:06.66]
26. Kim Spies / Kim at the Mall / Paranoia (Alternates) [0:02:38.63]
27. O Little Town Of Bethlehem / Hark! The Herald Angels Sing [0:02:31.24]
28. Tom Jones / With These Hands [0:02:43.65]

Лог создания рипа

Exact Audio Copy V1.1 from 23. June 2015
EAC extraction logfile from 12. January 2016, 12:13
Danny Elfman / Edward Scissorhands
Used drive : PLEXTOR CD-R PX-230A Adapter: 1 ID: 0
Read mode : SecureUtilize accurate stream : YesDefeat audio cache : YesMake use of C2 pointers : No
Read offset correction : 738Overread into Lead-In and Lead-Out : NoFill up missing offset samples with silence : YesDelete leading and trailing silent blocks : NoNull samples used in CRC calculations : YesUsed interface : Native Win32 interface for Win NT & 2000Gap handling : Appended to previous track
Used output format : User Defined EncoderSelected bitrate : 1024 kBit/sQuality : HighAdd ID3 tag : NoCommand line compressor : C:\Program Files (x86)\Exact Audio Copy\FLAC\FLAC.EXEAdditional command line options : -6 -V -T "ARTIST=%artist%" -T "TITLE=%title%" -T "ALBUM=%albumtitle%" -T "DATE=%year%"-T "TRACKNUMBER=%tracknr%" -T "GENRE=%genre%" -T "COMMENT=%comment%" -T "ALBUMARTIST=%albuminterpret%" -T "COMPOSER=%composer%"-T "DISCNUMBER=%cdnumber%" -T "TOTALDISCS=%totalcds%" -T "TOTALTRACKS=%numtracks%" %source% -o %dest%
TOC of the extracted CD
Track | Start | Length | Start sector | End sector --------------------------------------------------------- 1 | 0:00.00 | 2:51.73 | 0 | 12897 2 | 2:51.73 | 2:36.53 | 12898 | 24650 3 | 5:28.51 | 6:23.72 | 24651 | 53447 4 | 11:52.48 | 2:41.69 | 53448 | 65591 5 | 14:34.42 | 1:17.24 | 65592 | 71390 6 | 15:51.66 | 0:27.21 | 71391 | 73436 7 | 16:19.12 | 2:18.22 | 73437 | 83808 8 | 18:37.34 | 1:38.19 | 83809 | 91177 9 | 20:15.53 | 1:23.23 | 91178 | 97425 10 | 21:39.01 | 3:19.16 | 97426 | 112366 11 | 24:58.17 | 1:45.13 | 112367 | 120254 12 | 26:43.30 | 0:50.68 | 120255 | 124072 13 | 27:34.23 | 2:52.63 | 124073 | 137035 14 | 30:27.11 | 3:29.65 | 137036 | 152775 15 | 33:57.01 | 1:47.19 | 152776 | 160819 16 | 35:44.20 | 1:12.40 | 160820 | 166259 17 | 36:56.60 | 0:36.30 | 166260 | 168989 18 | 37:33.15 | 3:06.12 | 168990 | 182951 19 | 40:39.27 | 3:32.54 | 182952 | 198905 20 | 44:12.06 | 2:59.44 | 198906 | 212374 21 | 47:11.50 | 3:10.32 | 212375 | 226656 22 | 50:22.07 | 2:46.00 | 226657 | 239106 23 | 53:08.07 | 3:24.58 | 239107 | 254464 24 | 56:32.65 | 4:53.10 | 254465 | 276449 25 | 61:26.00 | 2:06.66 | 276450 | 285965 26 | 63:32.66 | 2:38.63 | 285966 | 297878 27 | 66:11.54 | 2:31.24 | 297879 | 309227 28 | 68:43.03 | 2:43.65 | 309228 | 321517
Track 1
Filename C:\Music\01 - Danny Elfman - Introduction (Titles).wav
Pre-gap length 0:00:02.00
Peak level 98.8 % Extraction speed 3.9 X Track quality 99.9 % Test CRC C68E6960 Copy CRC C68E6960 Track not present in AccurateRip database Copy OK
Track 2
Filename C:\Music\02 - Danny Elfman - Storytime.wav
Peak level 95.3 % Extraction speed 3.6 X Track quality 99.9 % Test CRC 79D7EFBD Copy CRC 79D7EFBD Track not present in AccurateRip database Copy OK
Track 3
Filename C:\Music\03 - Danny Elfman - Castle On The Hill.wav
Peak level 98.8 % Extraction speed 4.6 X Track quality 100.0 % Test CRC D71699FF Copy CRC D71699FF Track not present in AccurateRip database Copy OK
Track 4
Filename C:\Music\04 - Danny Elfman - Beautiful New World , Home Sweet Home.wav
Peak level 98.8 % Extraction speed 5.1 X Track quality 100.0 % Test CRC 13723DCD Copy CRC 13723DCD Track not present in AccurateRip database Copy OK
Track 5
Filename C:\Music\05 - Danny Elfman - Ballet De Suburbia (Suite).wav
Peak level 98.8 % Extraction speed 3.1 X Track quality 99.8 % Test CRC F65B4CBC Copy CRC F65B4CBC Track not present in AccurateRip database Copy OK
Track 6
Filename C:\Music\06 - Danny Elfman - Esmeralda.wav
Peak level 88.4 % Extraction speed 2.6 X Track quality 100.0 % Test CRC EA19057B Copy CRC EA19057B Track not present in AccurateRip database Copy OK
Track 7
Filename C:\Music\07 - Danny Elfman - The Cookie Factory.wav
Peak level 98.8 % Extraction speed 4.9 X Track quality 100.0 % Test CRC 2F941541 Copy CRC 2F941541 Track not present in AccurateRip database Copy OK
Track 8
Filename C:\Music\08 - Danny Elfman - Etiquette Lesson.wav
Peak level 69.7 % Extraction speed 3.5 X Track quality 99.8 % Test CRC 445DDABF Copy CRC 445DDABF Track not present in AccurateRip database Copy OK
Track 9
Filename C:\Music\09 - Danny Elfman - Housewives , Esmeralda 2 , Paper Dolls.wav
Peak level 98.8 % Extraction speed 3.2 X Track quality 99.8 % Test CRC B35140A4 Copy CRC B35140A4 Track not present in AccurateRip database Copy OK
Track 10
Filename C:\Music\10 - Danny Elfman - Edwardo The Barber.wav
Peak level 91.4 % Extraction speed 4.4 X Track quality 99.9 % Test CRC F40556E5 Copy CRC F40556E5 Track not present in AccurateRip database Copy OK
Track 11
Filename C:\Music\11 - Danny Elfman - Kim At The Mall , Talk Show.wav
Peak level 98.8 % Extraction speed 4.6 X Track quality 100.0 % Test CRC 8D66E508 Copy CRC 8D66E508 Track not present in AccurateRip database Copy OK
Track 12
Filename C:\Music\12 - Danny Elfman - Cloth World.wav
Peak level 98.8 % Extraction speed 3.5 X Track quality 100.0 % Test CRC BD478BB9 Copy CRC BD478BB9 Track not present in AccurateRip database Copy OK
Track 13
Filename C:\Music\13 - Danny Elfman - The Heist.wav
Peak level 98.8 % Extraction speed 4.6 X Track quality 100.0 % Test CRC CF74FE14 Copy CRC CF74FE14 Track not present in AccurateRip database Copy OK
Track 14
Filename C:\Music\14 - Danny Elfman - The Tide Chages , Kim Spies , Edward's Rage.wav
Peak level 98.8 % Extraction speed 4.8 X Track quality 100.0 % Test CRC E2F56FAB Copy CRC E2F56FAB Track not present in AccurateRip database Copy OK
Track 15
Filename C:\Music\15 - Danny Elfman - Ice Dance.wav
Peak level 94.4 % Extraction speed 4.5 X Track quality 100.0 % Test CRC 9992AA1C Copy CRC 9992AA1C Track not present in AccurateRip database Copy OK
Track 16
Filename C:\Music\16 - Danny Elfman - Confrontation.wav
Peak level 94.3 % Extraction speed 4.1 X Track quality 100.0 % Test CRC 5731C47A Copy CRC 5731C47A Track not present in AccurateRip database Copy OK
Track 17
Filename C:\Music\17 - Danny Elfman - Edward's Rampage.wav
Peak level 98.8 % Extraction speed 3.0 X Track quality 100.0 % Test CRC C13BCF4D Copy CRC C13BCF4D Track not present in AccurateRip database Copy OK
Track 18
Filename C:\Music\18 - Danny Elfman - Paranoia , Final Cut , Devil Bush.wav
Peak level 98.8 % Extraction speed 5.1 X Track quality 100.0 % Test CRC BAD04BCC Copy CRC BAD04BCC Track not present in AccurateRip database Copy OK
Track 19
Filename C:\Music\19 - Danny Elfman - Death!.wav
Peak level 98.8 % Extraction speed 5.2 X Track quality 100.0 % Test CRC 401B6515 Copy CRC 401B6515 Track not present in AccurateRip database Copy OK
Track 20
Filename C:\Music\20 - Danny Elfman - The Plot Unfolds.wav
Peak level 98.8 % Extraction speed 4.3 X Track quality 99.9 % Test CRC 73FE1527 Copy CRC 73FE1527 Track not present in AccurateRip database Copy OK
Track 21
Filename C:\Music\21 - Danny Elfman - The Final Confrontation.wav
Peak level 98.8 % Extraction speed 5.1 X Track quality 100.0 % Test CRC 014DC74F Copy CRC 014DC74F Track not present in AccurateRip database Copy OK
Track 22
Filename C:\Music\22 - Danny Elfman - Farewell.wav
Peak level 97.2 % Extraction speed 3.5 X Track quality 99.9 % Test CRC EC412C9A Copy CRC EC412C9A Track not present in AccurateRip database Copy OK
Track 23
Filename C:\Music\23 - Danny Elfman - The Grand Finale.wav
Peak level 98.8 % Extraction speed 3.7 X Track quality 100.0 % Test CRC B4DA5577 Copy CRC B4DA5577 Track not present in AccurateRip database Copy OK
Track 24
Filename C:\Music\24 - Danny Elfman - The End.wav
Peak level 98.8 % Extraction speed 4.9 X Track quality 99.9 % Test CRC 042D930B Copy CRC 042D930B Track not present in AccurateRip database Copy OK
Track 25
Filename C:\Music\25 - Danny Elfman - Trailer.wav
Peak level 98.8 % Extraction speed 4.7 X Track quality 100.0 % Test CRC F0AE1232 Copy CRC F0AE1232 Track not present in AccurateRip database Copy OK
Track 26
Filename C:\Music\26 - Danny Elfman - Kim Spies , Kim at the Mall , Paranoia (Alternates).wav
Peak level 90.8 % Extraction speed 4.9 X Track quality 100.0 % Test CRC 8116C89B Copy CRC 8116C89B Track not present in AccurateRip database Copy OK
Track 27
Filename C:\Music\27 - Danny Elfman - O Little Town Of Bethlehem , Hark! The Herald Angels Sing.wav
Peak level 90.0 % Extraction speed 3.4 X Track quality 100.0 % Test CRC AF705194 Copy CRC AF705194 Track not present in AccurateRip database Copy OK
Track 28
Filename C:\Music\28 - Tom Jones - With These Hands.wav
Peak level 89.5 % Extraction speed 4.8 X Track quality 100.0 % Test CRC 5BA73291 Copy CRC 5BA73291 Track not present in AccurateRip database Copy OK
None of the tracks are present in the AccurateRip database
No errors occurred
End of status report
---- CUETools DB Plugin V2.1.6
[CTDB TOCID: qtw7f1S6wJHzYZ7EF.rYYK.ZhfI-] foundSubmit result: qtw7f1S6wJHzYZ7EF.rYYK.ZhfI- has been confirmedTrack | CTDB Status 1 | (8/8) Accurately ripped 2 | (8/8) Accurately ripped 3 | (8/8) Accurately ripped 4 | (8/8) Accurately ripped 5 | (8/8) Accurately ripped 6 | (8/8) Accurately ripped 7 | (8/8) Accurately ripped 8 | (8/8) Accurately ripped 9 | (8/8) Accurately ripped 10 | (8/8) Accurately ripped 11 | (8/8) Accurately ripped 12 | (8/8) Accurately ripped 13 | (8/8) Accurately ripped 14 | (8/8) Accurately ripped 15 | (8/8) Accurately ripped 16 | (8/8) Accurately ripped 17 | (8/8) Accurately ripped 18 | (8/8) Accurately ripped 19 | (8/8) Accurately ripped 20 | (8/8) Accurately ripped 21 | (8/8) Accurately ripped 22 | (8/8) Accurately ripped 23 | (8/8) Accurately ripped 24 | (8/8) Accurately ripped 25 | (8/8) Accurately ripped 26 | (8/8) Accurately ripped 27 | (8/8) Accurately ripped 28 | (8/8) Accurately ripped
==== Log checksum 68651604DFA4BF506D6AB88435D6DDD06CFB92C894878541F3EB546FD323FA07 ====

Содержание индексной карты (.CUE)

REM GENRE SoundtrackREM DATE 2015REM DISCID 8210BE1CREM COMMENT "ExactAudioCopy v1.1"PERFORMER "Danny Elfman"TITLE "Edward Scissorhands"FILE "01 - Danny Elfman - Introduction (Titles).wav" WAVE TRACK 01 AUDIO TITLE "Introduction (Titles)" PERFORMER "Danny Elfman" INDEX 01 00:00:00FILE "02 - Danny Elfman - Storytime.wav" WAVE TRACK 02 AUDIO TITLE "Storytime" PERFORMER "Danny Elfman" INDEX 01 00:00:00FILE "03 - Danny Elfman - Castle On The Hill.wav" WAVE TRACK 03 AUDIO TITLE "Castle On The Hill" PERFORMER "Danny Elfman" INDEX 01 00:00:00FILE "04 - Danny Elfman - Beautiful New World , Home Sweet Home.wav" WAVE TRACK 04 AUDIO TITLE "Beautiful New World / Home Sweet Home" PERFORMER "Danny Elfman" INDEX 01 00:00:00FILE "05 - Danny Elfman - Ballet De Suburbia (Suite).wav" WAVE TRACK 05 AUDIO TITLE "Ballet De Suburbia (Suite)" PERFORMER "Danny Elfman" INDEX 01 00:00:00FILE "06 - Danny Elfman - Esmeralda.wav" WAVE TRACK 06 AUDIO TITLE "Esmeralda" PERFORMER "Danny Elfman" INDEX 01 00:00:00FILE "07 - Danny Elfman - The Cookie Factory.wav" WAVE TRACK 07 AUDIO TITLE "The Cookie Factory" PERFORMER "Danny Elfman" INDEX 01 00:00:00FILE "08 - Danny Elfman - Etiquette Lesson.wav" WAVE TRACK 08 AUDIO TITLE "Etiquette Lesson" PERFORMER "Danny Elfman" INDEX 01 00:00:00FILE "09 - Danny Elfman - Housewives , Esmeralda 2 , Paper Dolls.wav" WAVE TRACK 09 AUDIO TITLE "Housewives / Esmeralda 2 / Paper Dolls" PERFORMER "Danny Elfman" INDEX 01 00:00:00FILE "10 - Danny Elfman - Edwardo The Barber.wav" WAVE TRACK 10 AUDIO TITLE "Edwardo The Barber" PERFORMER "Danny Elfman" INDEX 01 00:00:00FILE "11 - Danny Elfman - Kim At The Mall , Talk Show.wav" WAVE TRACK 11 AUDIO TITLE "Kim At The Mall / Talk Show" PERFORMER "Danny Elfman" INDEX 01 00:00:00FILE "12 - Danny Elfman - Cloth World.wav" WAVE TRACK 12 AUDIO TITLE "Cloth World" PERFORMER "Danny Elfman" INDEX 01 00:00:00FILE "13 - Danny Elfman - The Heist.wav" WAVE TRACK 13 AUDIO TITLE "The Heist" PERFORMER "Danny Elfman" INDEX 01 00:00:00FILE "14 - Danny Elfman - The Tide Chages , Kim Spies , Edward's Rage.wav" WAVE TRACK 14 AUDIO TITLE "The Tide Chages / Kim Spies / Edward's Rage" PERFORMER "Danny Elfman" INDEX 01 00:00:00FILE "15 - Danny Elfman - Ice Dance.wav" WAVE TRACK 15 AUDIO TITLE "Ice Dance" PERFORMER "Danny Elfman" INDEX 01 00:00:00FILE "16 - Danny Elfman - Confrontation.wav" WAVE TRACK 16 AUDIO TITLE "Confrontation" PERFORMER "Danny Elfman" INDEX 01 00:00:00FILE "17 - Danny Elfman - Edward's Rampage.wav" WAVE TRACK 17 AUDIO TITLE "Edward's Rampage" PERFORMER "Danny Elfman" INDEX 01 00:00:00FILE "18 - Danny Elfman - Paranoia , Final Cut , Devil Bush.wav" WAVE TRACK 18 AUDIO TITLE "Paranoia / Final Cut / Devil Bush" PERFORMER "Danny Elfman" INDEX 01 00:00:00FILE "19 - Danny Elfman - Death!.wav" WAVE TRACK 19 AUDIO TITLE "Death!" PERFORMER "Danny Elfman" INDEX 01 00:00:00FILE "20 - Danny Elfman - The Plot Unfolds.wav" WAVE TRACK 20 AUDIO TITLE "The Plot Unfolds" PERFORMER "Danny Elfman" INDEX 01 00:00:00FILE "21 - Danny Elfman - The Final Confrontation.wav" WAVE TRACK 21 AUDIO TITLE "The Final Confrontation" PERFORMER "Danny Elfman" INDEX 01 00:00:00FILE "22 - Danny Elfman - Farewell.wav" WAVE TRACK 22 AUDIO TITLE "Farewell" PERFORMER "Danny Elfman" INDEX 01 00:00:00FILE "23 - Danny Elfman - The Grand Finale.wav" WAVE TRACK 23 AUDIO TITLE "The Grand Finale" PERFORMER "Danny Elfman" INDEX 01 00:00:00FILE "24 - Danny Elfman - The End.wav" WAVE TRACK 24 AUDIO TITLE "The End" PERFORMER "Danny Elfman" INDEX 01 00:00:00FILE "25 - Danny Elfman - Trailer.wav" WAVE TRACK 25 AUDIO TITLE "Trailer" PERFORMER "Danny Elfman" INDEX 01 00:00:00FILE "26 - Danny Elfman - Kim Spies , Kim at the Mall , Paranoia (Alternates).wav" WAVE TRACK 26 AUDIO TITLE "Kim Spies / Kim at the Mall / Paranoia (Alternates)" PERFORMER "Danny Elfman" INDEX 01 00:00:00FILE "27 - Danny Elfman - O Little Town Of Bethlehem , Hark! The Herald Angels Sing.wav" WAVE TRACK 27 AUDIO TITLE "O Little Town Of Bethlehem / Hark! The Herald Angels Sing" PERFORMER "Danny Elfman" INDEX 01 00:00:00FILE "28 - Tom Jones - With These Hands.wav" WAVE TRACK 28 AUDIO TITLE "With These Hands" PERFORMER "Tom Jones" INDEX 01 00:00:00
[teatrix.ru].t12776.torrent 
Торрент: Зарегистрирован [ 2016-01-13 06:25 ] · 332BAF98BD5AF2DD144EA65AC34E8B4022B5F942

Скачать .torrent

Скачать

20 KB

Статус: проверено
Скачан: 0 раз
Размер: 430 MB
terms.php



Быстрый ответ

Имя:

      
Для отправки сообщений необходимо включить JavaScript
Показать сообщения:    

Текущее время: 03-Дек 07:35

Часовой пояс: UTC + 3


Вы можете начинать темы
Вы можете отвечать на сообщения
Вы не можете редактировать свои сообщения
Вы не можете удалять свои сообщения
Вы не можете голосовать в опросах
Вы не можете прикреплять файлы к сообщениям
Вы можете скачивать файлы