(Classical) Ludwig van Beethoven — The Complete Piano Concertos • «Choral» Fantasy Op 80 (Leif Ove Andsnes) — 2014, FLAC (image+.cue) lossless


Статистика раздачи [Обновить пиров]
Размер:  653 MB   |    Зарегистрирован:  10 месяцев 25 дней   |    Скачан:  0 раз
Сидов:  1  [  0 KB/s  ]   Личеров:  1  [  0 KB/s  ]   Подробная статистика пиров
 
   
 
 
 

[Цитировать]

The Complete Piano Concertos • «Choral» Fantasy Op 80-
Жанр: Classical
Страна-производитель комплекта: США
Издатель (лейбл): Sony Classical
Номер по каталогу: 88843058872
Год издания комплекта: October, 27, 2014
Годы записи фонограмм: May, 22-23, 2012 (Op 15 & 37); November, 22-23, 2013 (Op 19 & 37); May, 20-21, 2014 (Op 73 & 80)
Композитор: Ludwig van Beethoven
Исполнительский коллектив: Mahler Chamber Orchestra under Leif Ove Andsnes, Leif Ove Andsnes (Piano); The Prague Philharmonic Choir (Op 80)
Аудио кодек: flac
Тип рипа: image+.cue
Битрейт аудио: lossless
Продолжительность: 03h08'34"
Источник: web
Наличие сканов в содержимом раздачи: да-

Треклист

CD 1 [01h08'19"]
(01-03) Piano Concerto № 1 C-Dur Op 15 [32'54"]
(04-06) Piano Concerto № 3 c-moll Op 37 [35'25"]-Номер по каталогу: 88725420582
Год издания диска: September, 11, 2012
Recorded during The Prague Spring Festival May 20 & 21 2014 At Dvořák Hall, Rudolfinum, Prague, Czech Republic-

EAC log

Exact Audio Copy V1.0 beta 3 from 29. August 2011
EAC extraction logfile from 19. September 2014, 11:15
Leif Ove Andsnes / Beethoven - Piano Concertos nos.1 & 3 - Leif Ove Andsnes
Used drive  : TSSTcorpCDDVDW SH-222BB   Adapter: 2  ID: 1
Read mode               : Secure
Utilize accurate stream : Yes
Defeat audio cache      : Yes
Make use of C2 pointers : No
Read offset correction                      : 6
Overread into Lead-In and Lead-Out          : No
Fill up missing offset samples with silence : Yes
Delete leading and trailing silent blocks   : No
Null samples used in CRC calculations       : Yes
Used interface                              : Native Win32 interface for Win NT & 2000
Used output format              : User Defined Encoder
Selected bitrate                : 896 kBit/s
Quality                         : High
Add ID3 tag                     : No
Command line compressor         : C:\Program Files\Exact Audio Copy\FLAC\FLAC.EXE
Additional command line options : -8 -V -T "TITLE=%title%" -T "ARTIST=%artist%" -T "ALBUMARTIST=%albumartist%" -T "ALBUM=%albumtitle%" -T "DATE=%year%" -T "TRACKNUMBER=%tracknr%" -T "TRACKTOTAL=%numtracks%" -T "GENRE=%genre%" -T "COMMENT=%comment%" -T "PERFORMER=%albuminterpret%" -T "COMPOSER=%composer%" %source% -o %dest%
TOC of the extracted CD
     Track |   Start  |  Length  | Start sector | End sector
    ---------------------------------------------------------
        1  |  0:00.00 | 13:49.60 |         0    |    62234
        2  | 13:49.60 | 10:26.70 |     62235    |   109254
        3  | 24:16.55 |  8:37.23 |    109255    |   148052
        4  | 32:54.03 | 16:40.47 |    148053    |   223099
        5  | 49:34.50 |  9:54.24 |    223100    |   267673
        6  | 59:28.74 |  8:50.37 |    267674    |   307460
Range status and errors
Selected range
     Filename G:\Ripped general\[7784] Beethoven – Piano Concertos nos.1 & 3 – Leif Ove Andsnes\Beethoven - Piano Concertos nos.1 & 3 - Leif Ove Andsnes.wav
     Peak level 96.1 %
     Extraction speed 6.0 X
     Range quality 100.0 %
     Test CRC B147DADC
     Copy CRC B147DADC
     Copy OK
No errors occurred
AccurateRip summary
Track  1  accurately ripped (confidence 29)  [E5FD6AD7]  (AR v2)
Track  2  accurately ripped (confidence 30)  [8022115B]  (AR v2)
Track  3  accurately ripped (confidence 30)  [922E8CBA]  (AR v2)
Track  4  accurately ripped (confidence 30)  [40FA4735]  (AR v2)
Track  5  accurately ripped (confidence 30)  [158B819B]  (AR v2)
Track  6  accurately ripped (confidence 30)  [F4D97D01]  (AR v2)
All tracks accurately ripped
End of status report
==== Log checksum D3C3BF98AC6146068DC7ED865DFB3F1A8BA053800AA2FDAE22393AD15E87ED0F ====

-

CUE

REM GENRE Classical
REM DATE 2012
REM DISCID 5E100306
REM COMMENT "ExactAudioCopy v1.0b3"
CATALOG 0887254205821
PERFORMER "Leif Ove Andsnes"
TITLE "Beethoven - Piano Concertos nos.1 & 3 - Leif Ove Andsnes"
FILE "Beethoven - Piano Concertos nos.1 & 3 - Leif Ove Andsnes.flac" WAVE
  TRACK 01 AUDIO
    TITLE "Piano Concerto no.1 in C major, op.15 - 1. Allegro con brio"
    PERFORMER "Leif Ove Andsnes"
    ISRC USSM11204372
    INDEX 01 00:00:00
  TRACK 02 AUDIO
    TITLE "Piano Concerto no.1 in C major, op.15 - 2. Largo"
    PERFORMER "Leif Ove Andsnes"
    ISRC USSM11204373
    INDEX 01 13:49:60
  TRACK 03 AUDIO
    TITLE "Piano Concerto no.1 in C major, op.15 - 3. Rondo. Allegro"
    PERFORMER "Leif Ove Andsnes"
    ISRC USSM11204374
    INDEX 01 24:16:55
  TRACK 04 AUDIO
    TITLE "Piano Concerto no.3 in C minor, op.37 - 1. Allegro con brio"
    PERFORMER "Leif Ove Andsnes"
    ISRC USSM11204376
    INDEX 00 32:46:21
    INDEX 01 32:54:03
  TRACK 05 AUDIO
    TITLE "Piano Concerto no.3 in C minor, op.37 - 2. Largo"
    PERFORMER "Leif Ove Andsnes"
    ISRC USSM11204377
    INDEX 01 49:34:50
  TRACK 06 AUDIO
    TITLE "Piano Concerto no.3 in C minor, op.37 - 3. Rondo. Allegro"
    PERFORMER "Leif Ove Andsnes"
    ISRC USSM11204377
    INDEX 01 59:28:74
-CD 2 [01h03'43"]
(01-03) Piano Concerto № 2 B-Dur Op 19 [29'41"]
(04-06) Piano Concerto № 4 G-Dur Op 58 [34'02"]-Номер по каталогу: 88883705482
Год издания диска: February, 17, 2014
Recorded December 22/23 2013 at St. Jude On The Hill, Hampstead Garden Suburb, London-

EAC log

Exact Audio Copy V1.0 beta 3 from 29. August 2011
EAC extraction logfile from 19. September 2014, 11:38
Leif Ove Andsnes / Beethoven - Piano Concertos nos.2 & 4 - Leif Ove Andsnes
Used drive  : TSSTcorpCDDVDW SH-222BB   Adapter: 2  ID: 1
Read mode               : Secure
Utilize accurate stream : Yes
Defeat audio cache      : Yes
Make use of C2 pointers : No
Read offset correction                      : 6
Overread into Lead-In and Lead-Out          : No
Fill up missing offset samples with silence : Yes
Delete leading and trailing silent blocks   : No
Null samples used in CRC calculations       : Yes
Used interface                              : Native Win32 interface for Win NT & 2000
Used output format              : User Defined Encoder
Selected bitrate                : 896 kBit/s
Quality                         : High
Add ID3 tag                     : No
Command line compressor         : C:\Program Files\Exact Audio Copy\FLAC\FLAC.EXE
Additional command line options : -8 -V -T "TITLE=%title%" -T "ARTIST=%artist%" -T "ALBUMARTIST=%albumartist%" -T "ALBUM=%albumtitle%" -T "DATE=%year%" -T "TRACKNUMBER=%tracknr%" -T "TRACKTOTAL=%numtracks%" -T "GENRE=%genre%" -T "COMMENT=%comment%" -T "PERFORMER=%albuminterpret%" -T "COMPOSER=%composer%" %source% -o %dest%
TOC of the extracted CD
     Track |   Start  |  Length  | Start sector | End sector
    ---------------------------------------------------------
        1  |  0:00.00 | 14:23.40 |         0    |    64764
        2  | 14:23.40 |  9:02.08 |     64765    |   105422
        3  | 23:25.48 |  6:15.37 |    105423    |   133584
        4  | 29:41.10 | 19:04.72 |    133585    |   219456
        5  | 48:46.07 |  4:49.35 |    219457    |   241166
        6  | 53:35.42 | 10:07.25 |    241167    |   286716
Range status and errors
Selected range
     Filename G:\Ripped general\[7783] Beethoven – Piano Concertos nos.2 & 4 – Leif Ove Andsnes\Beethoven - Piano Concertos nos.2 & 4 - Leif Ove Andsnes.wav
     Peak level 97.1 %
     Extraction speed 7.0 X
     Range quality 100.0 %
     Test CRC FEF0BB8A
     Copy CRC FEF0BB8A
     Copy OK
No errors occurred
AccurateRip summary
Track  1  accurately ripped (confidence 11)  [A56AD431]  (AR v2)
Track  2  accurately ripped (confidence 11)  [016E1E71]  (AR v2)
Track  3  accurately ripped (confidence 12)  [BE21662F]  (AR v2)
Track  4  accurately ripped (confidence 11)  [09284C79]  (AR v2)
Track  5  accurately ripped (confidence 12)  [30E0E60C]  (AR v2)
Track  6  accurately ripped (confidence 11)  [CB0AC35E]  (AR v2)
All tracks accurately ripped
End of status report
==== Log checksum 4ACB0860466E01CAA5A9A3BC28480DA350B09AB0E69C34F090E37E27F3E63BD2 ====

-

CUE

REM GENRE Classical
REM DATE 2014
REM DISCID 560EEE06
REM COMMENT "ExactAudioCopy v1.0b3"
CATALOG 0888837054829
PERFORMER "Leif Ove Andsnes"
TITLE "Beethoven - Piano Concertos nos.2 & 4 - Leif Ove Andsnes"
FILE "Beethoven - Piano Concertos nos.2 & 4 - Leif Ove Andsnes.flac" WAVE
  TRACK 01 AUDIO
    TITLE "Piano Concerto No. 2 in B-flat major, Op. 19 - Allegro con brio"
    PERFORMER "Leif Ove Andsnes"
    ISRC USSM11307703
    INDEX 01 00:00:00
  TRACK 02 AUDIO
    TITLE "Piano Concerto No. 2 in B-flat major, Op. 19 - Adagio"
    PERFORMER "Leif Ove Andsnes"
    ISRC USSM11307704
    INDEX 01 14:23:40
  TRACK 03 AUDIO
    TITLE "Piano Concerto No. 2 in B-flat major, Op. 19 - Rondo. Molto allegro"
    PERFORMER "Leif Ove Andsnes"
    ISRC USSM11307705
    INDEX 01 23:25:48
  TRACK 04 AUDIO
    TITLE "Piano Concerto No. 4 in G major, Op. 58 - Allegro moderato"
    PERFORMER "Leif Ove Andsnes"
    ISRC USSM11307707
    INDEX 00 29:30:61
    INDEX 01 29:41:10
  TRACK 05 AUDIO
    TITLE "Piano Concerto No. 4 in G major, Op. 58 - Andante con moto"
    PERFORMER "Leif Ove Andsnes"
    ISRC USSM11307708
    INDEX 01 48:46:07
  TRACK 06 AUDIO
    TITLE "Piano Concerto No. 4 in G major, Op. 58 - Rondo. Vivace"
    PERFORMER "Leif Ove Andsnes"
    ISRC USSM11307709
    INDEX 01 53:35:42
-CD 3 [00h56'32"]
(01-03) Piano Concerto № 5 Es-Dur Op 73 «Emperor» [37'56"]
(04-05) Piano, Chorus & Orchestra Fantasy c-moll Op 80 [18'36"]-Номер по каталогу: 88843058862
Год издания диска: September, 16, 2014
Recorded during The Prague Spring Festival May 20 & 21 2014 At Dvořák Hall, Rudolfinum, Prague, Czech Republic-

EAC log

Exact Audio Copy V1.0 beta 3 from 29. August 2011
EAC extraction logfile from 19. September 2014, 12:20
Leif Ove Andsnes / Beethoven - Piano Concerto no.5 & Choral Fantasy - Leif Ove Andsnes
Used drive  : TSSTcorpCDDVDW SH-222BB   Adapter: 2  ID: 1
Read mode               : Secure
Utilize accurate stream : Yes
Defeat audio cache      : Yes
Make use of C2 pointers : No
Read offset correction                      : 6
Overread into Lead-In and Lead-Out          : No
Fill up missing offset samples with silence : Yes
Delete leading and trailing silent blocks   : No
Null samples used in CRC calculations       : Yes
Used interface                              : Native Win32 interface for Win NT & 2000
Used output format              : User Defined Encoder
Selected bitrate                : 896 kBit/s
Quality                         : High
Add ID3 tag                     : No
Command line compressor         : C:\Program Files\Exact Audio Copy\FLAC\FLAC.EXE
Additional command line options : -8 -V -T "TITLE=%title%" -T "ARTIST=%artist%" -T "ALBUMARTIST=%albumartist%" -T "ALBUM=%albumtitle%" -T "DATE=%year%" -T "TRACKNUMBER=%tracknr%" -T "TRACKTOTAL=%numtracks%" -T "GENRE=%genre%" -T "COMMENT=%comment%" -T "PERFORMER=%albuminterpret%" -T "COMPOSER=%composer%" %source% -o %dest%
TOC of the extracted CD
     Track |   Start  |  Length  | Start sector | End sector
    ---------------------------------------------------------
        1  |  0:00.00 | 20:06.46 |         0    |    90495
        2  | 20:06.46 |  7:20.01 |     90496    |   123496
        3  | 27:26.47 | 10:28.73 |    123497    |   170669
        4  | 37:55.45 |  3:17.09 |    170670    |   185453
        5  | 41:12.54 | 15:19.01 |    185454    |   254379
Range status and errors
Selected range
     Filename G:\Ripped general\[7782] Beethoven – Piano Concerto no.5 & Choral Fantasy – Leif Ove Andsnes\Beethoven - Piano Concerto no.5 & Choral Fantasy - Leif Ove Andsnes.wav
     Peak level 97.5 %
     Extraction speed 2.8 X
     Range quality 99.9 %
     Test CRC 387AC938
     Copy CRC 387AC938
     Copy OK
No errors occurred
AccurateRip summary
Track  1  not present in database
Track  2  not present in database
Track  3  not present in database
Track  4  not present in database
Track  5  not present in database
None of the tracks are present in the AccurateRip database
End of status report
==== Log checksum 22798ED42D1A9CA5747A4CA068F0F90BDE0FAD6583C3EF3AF176308E90C27FDD ====

-

CUETools log

[CUETools log; Date: 12.01.2016 21:53:31; Version: 2.1.5]
[CTDB TOCID: NlBxGxcoc5EEACDI3T89BKY0uJQ-] found.
Track | CTDB Status
  1   | (48/48) Accurately ripped
  2   | (48/48) Accurately ripped
  3   | (48/48) Accurately ripped
  4   | (48/48) Accurately ripped
  5   | (47/48) Accurately ripped
[AccurateRip ID: 000c94b1-00384522-430d3f05] found.
Track   [  CRC   |   V2   ] Status
01     [497e4791|26c821da] (00+36/36) Accurately ripped
02     [268b6433|5c8e38a8] (00+36/36) Accurately ripped
03     [c4173efd|d9fb8014] (00+36/36) Accurately ripped
04     [233ae0d9|36fbaf10] (00+36/36) Accurately ripped
05     [5fc1372a|49a4e6e5] (00+36/36) Accurately ripped
Track Peak [ CRC32  ] [W/O NULL] [  LOG   ]
--   97,5 [387AC938] [DA76CDCA]   CRC32
01   90,7 [203D7BDB] [E4CFC3AA]
02   29,6 [1B462DC9] [826892F6]
03   61,1 [E10A858B] [A2D12BD9]
04   48,1 [6EE4E460] [3D288E10]
05   97,5 [0C1181F6] [41212E69]

-

CUE

REM GENRE Classical
REM DISCID 430D3F05
REM COMMENT "ExactAudioCopy v1.0b3"
CATALOG 0888430588622
PERFORMER "Leif Ove Andsnes"
TITLE "Beethoven - Piano Concerto no.5 & Choral Fantasy - Leif Ove Andsnes"
FILE "Beethoven - Piano Concerto no.5 & Choral Fantasy - Leif Ove Andsnes.flac" WAVE
  TRACK 01 AUDIO
    TITLE "Piano Concerto no.5 in E flat major - I. Allegro"
    PERFORMER "Leif Ove Andsnes"
    ISRC USSM11405171
    INDEX 01 00:00:00
  TRACK 02 AUDIO
    TITLE "Piano Concerto no.5 in E flat major - II. Adagio un poco moto"
    PERFORMER "Leif Ove Andsnes"
    ISRC USSM11405172
    INDEX 01 20:06:46
  TRACK 03 AUDIO
    TITLE "Piano Concerto no.5 in E flat major - III. Rondo. Allegro"
    PERFORMER "Leif Ove Andsnes"
    ISRC USSM11405173
    INDEX 01 27:26:47
  TRACK 04 AUDIO
    TITLE "Fantasy for Piano, Chorus and Orchestra in C minor - I. Adagio"
    PERFORMER "Leif Ove Andsnes"
    ISRC USSM11405175
    INDEX 00 37:45:52
    INDEX 01 37:55:45
  TRACK 05 AUDIO
    TITLE "Fantasy for Piano, Chorus and Orchestra in C minor - II. Finale - Meno Allegr..."
    PERFORMER "Leif Ove Andsnes"
    ISRC USSM11405176
    INDEX 01 41:12:54

-
-
[teatrix.ru].t12779.torrent 
Торрент: Зарегистрирован [ 2016-01-13 06:25 ] · 6F40D4F17BFECC233462EE0082EC49BECC7AD3B8

Скачать .torrent

Скачать

19 KB

Статус: проверено
Скачан: 0 раз
Размер: 653 MB
terms.php



Быстрый ответ

Имя:

      
Для отправки сообщений необходимо включить JavaScript
Показать сообщения:    

Текущее время: 07-Дек 19:23

Часовой пояс: UTC + 3


Вы можете начинать темы
Вы можете отвечать на сообщения
Вы не можете редактировать свои сообщения
Вы не можете удалять свои сообщения
Вы не можете голосовать в опросах
Вы не можете прикреплять файлы к сообщениям
Вы можете скачивать файлы