(Score) Огненные колесницы / Chariots Of Fire (Chariots Of Fire) (Vangelis) - 1981, FLAC (image+.cue), lossless


Статистика раздачи [Обновить пиров]
Размер:  221 MB   |    Зарегистрирован:  10 месяцев 28 дней   |    Скачан:  0 раз

Полного источника не было: 7 месяцев 14 дней

 
   
 
 
 

[Цитировать]

Огненные колесницы / Chariots Of Fire
Название альбома: Chariots Of Fire
Жанр: Score
Композитор: Vangelis
Год выпуска диска: 1981
Страна-производитель диска: US
Издатель (лейбл): Polydor UK LTD
Номер по каталогу: 800 020-2
Аудиокодек: FLAC (*.flac)
Тип рипа: image+.cue
Битрейт аудио: lossless
Продолжительность: 42:08
Источник: собственный рип
Ник: Stripakulina
Наличие сканов в содержимом раздачи: да
Треклист:
1. Titles (03:34)
2. Five Circles (05:23)
3. Abraham's Theme (03:18)
4. Eric's Theme (04:20)
5. 100 Metres (02:05)
6. Jerusalem (02:47)
7. Chariots of Fire (20:41)

Лог создания рипа

Exact Audio Copy V1.1 from 23. June 2015
Отчёт EAC об извлечении, выполненном 12. января 2016, 9:27
Vangelis / Chariots Of Fire
Дисковод: PLEXTOR CD-R PREMIUM2 Adapter: 1 ID: 0
Режим чтения : ДостоверностьИспользование точного потока : ДаОтключение кэша аудио : ДаИспользование указателей C2 : Нет
Коррекция смещения при чтении : 30Способность читать области Lead-in и Lead-out : ДаЗаполнение пропущенных сэмплов тишиной : ДаУдаление блоков с тишиной в начале и конце : НетПри вычислениях CRC использовались нулевые сэмплы : ДаИнтерфейс : Встроенный Win32-интерфейс для Win NT/2000
Выходной формат : Внутренние WAV-операцииФормат сэмплов : 44.100 Гц; 16 бит; стерео
TOC извлечённого CD
Трек | Старт | Длительность | Начальный сектор | Конечный сектор --------------------------------------------------------------------- 1 | 0:00.32 | 3:33.58 | 32 | 16064 2 | 3:34.15 | 5:23.25 | 16065 | 40314 3 | 8:57.40 | 3:17.72 | 40315 | 55161 4 | 12:15.37 | 4:19.50 | 55162 | 74636 5 | 16:35.12 | 2:04.70 | 74637 | 84006 6 | 18:40.07 | 2:47.18 | 84007 | 96549 7 | 21:27.25 | 20:40.47 | 96550 | 189596
Характеристики диапазона извлечения и сообщения об ошибках
Выбранный диапазон
Имя файла D:\For rutracker.org\Vangelis - Chariots Of Fire [Polydor 800 020-2] - 1981\Vangelis - Chariots Of Fire.wav
Пиковый уровень 77.6 % Скорость извлечения 6.4 X Качество диапазона 100.0 % CRC теста EB628860 CRC копии EB628860 Копирование... OK
Ошибок не произошло
AccurateRip: сводка
Трек 1 : извлечено точно (доверие 12) [83A3F369] (AR v2)Трек 2 : извлечено точно (доверие 12) [A77AB3C9] (AR v2)Трек 3 : извлечено точно (доверие 12) [9553889C] (AR v2)Трек 4 : извлечено точно (доверие 12) [AC198695] (AR v2)Трек 5 : извлечено точно (доверие 12) [9FCC221A] (AR v2)Трек 6 : извлечено точно (доверие 12) [751B6F5E] (AR v2)Трек 7 : извлечено точно (доверие 12) [1CA27F03] (AR v2)
Все треки извлечены точно
Конец отчёта
---- CUETools DB Plugin V2.1.6
[CTDB TOCID: 6dkQia.Xu3wldzNZby4ysuSSrrY-] foundSubmit result: 6dkQia.Xu3wldzNZby4ysuSSrrY- has been confirmedTrack | CTDB Status 1 | (12/13) Accurately ripped 2 | (13/13) Accurately ripped 3 | (13/13) Accurately ripped 4 | (13/13) Accurately ripped 5 | (13/13) Accurately ripped 6 | (13/13) Accurately ripped 7 | (12/13) Accurately ripped
==== Контрольная сумма отчёта 7C4B6C9AE5EFD769D1D54275AFF16A6743B7D4205EE96447020F9F0CB38BBF6B ====

CUETools log

[CUETools log; Date: 12.01.2016 22:56:25; Version: 2.1.6]Pregap length 00:00:32.[CTDB TOCID: 6dkQia.Xu3wldzNZby4ysuSSrrY-] found.Track | CTDB Status 1 | (13/14) Accurately ripped 2 | (14/14) Accurately ripped 3 | (14/14) Accurately ripped 4 | (14/14) Accurately ripped 5 | (14/14) Accurately ripped 6 | (14/14) Accurately ripped 7 | (13/14) Accurately ripped[AccurateRip ID: 00087d4d-00348b98-6009df07] found.Track [ CRC | V2 ] Status 01 [cd806ef2|83a3f369] (31+12/65) Accurately ripped 02 [cde504ed|a77ab3c9] (31+12/65) Accurately ripped 03 [99eb1229|9553889c] (32+12/66) Accurately ripped 04 [8bd11dae|ac198695] (31+12/65) Accurately ripped 05 [0918d38c|9fcc221a] (32+12/66) Accurately ripped 06 [7ea4398a|751b6f5e] (32+12/66) Accurately ripped 07 [f120a894|1ca27f03] (30+12/63) Accurately rippedOffsetted by 2203: 01 [33731da3] (05/65) Accurately ripped 02 [23a9dddd] (05/65) Accurately ripped 03 [d60562ce] (05/66) Accurately ripped 04 [b91df633] (05/65) Accurately ripped 05 [7f0550bb] (05/66) Accurately ripped 06 [c325e484] (05/66) Accurately ripped 07 [a0bac7a7] (05/63) Accurately ripped
Track Peak [ CRC32 ] [W/O NULL] [ LOG ] -- 77,6 [EB628860] [1C071B7F] CRC32 01 73,7 [4F31B6C7] [0B1CE00B] 02 56,7 [D4100ED5] [9BDDFDAB] 03 47,7 [12BD1711] [35A3174A] 04 63,1 [0A1F6867] [6D61B042] 05 44,7 [DD64C952] [7A6E9368] 06 47,4 [013A8DF7] [BD72D47A] 07 77,6 [2FD668BB] [EE5688BF]
[teatrix.ru].t12781.torrent 
Торрент: Зарегистрирован [ 2016-01-13 10:35 ] · D6FF7DCF0A6D4BCA7AC7B8CF389B40499A625FB2

Скачать .torrent

Скачать

18 KB

Статус: проверено
Скачан: 0 раз
Размер: 221 MB
terms.php



Быстрый ответ

Имя:

      
Для отправки сообщений необходимо включить JavaScript
Показать сообщения:    

Текущее время: 11-Дек 07:16

Часовой пояс: UTC + 3


Вы можете начинать темы
Вы можете отвечать на сообщения
Вы не можете редактировать свои сообщения
Вы не можете удалять свои сообщения
Вы не можете голосовать в опросах
Вы не можете прикреплять файлы к сообщениям
Вы можете скачивать файлы