Степной Волк / Steppenwolf (Фред Хайнс / Fred Haines) [1974, США, Швейцария, Англия, Франция, Италия, психологическая драма, DVDRip] MVO (НТВ) + Sub Rus, Eng + Original Eng


Статистика раздачи [Обновить пиров]
Размер:  1.59 GB   |    Зарегистрирован:  10 месяцев 22 дня   |    Скачан:  0 раз

Полного источника не было: Никогда

 
   
 
 
 

[Цитировать]

Степной Волк / Steppenwolf
Страна: США, Швейцария, Англия, Франция, Италия
Жанр: психологическая драма
Год выпуска: 1974
Продолжительность: 01:43:22
Перевод: Профессиональный (многоголосый закадровый) - НТВ
Cубтитры: русские, английские
Оригинальная аудиодорожка: английский

Режиссер: Фред Хайнс / Fred Haines
В ролях: Макс фон Сюдов, Доминик Санда, Пьер Клименти, Карла Романелли, Рой Босьер, Нильс-Петер Рудольф, Альфред Байллоу, Чарльз Реньер, Гельмут Фёрнбахер, Эдуард Линкерс, Хелен Гессе, Сильвия Райзе, Санни Меллес
Описание: Главный герой фильма — Гарри Галлер, одинокий уже стареющий человек — ему исполнилось 50 лет. Он живёт один без семьи, ему как степному волку она не нужна. Он презирает мещанство, но с другой стороны ему волей-неволей приходится использовать все прелести мещанской жизни — деньги, одежду, а иногда и развлечения. Гарри страдает своеобразным раздвоением личности. Он борется с самим собой, считая себя сверхличностью и боясь скатиться к мещанству. В этой борьбе он почти доходит до самоубийства, от которого его случайно спасает девушка по имени Гермина. Сможет ли новая знакомая изменить внутренний мир Гарри?
Качество видео: DVDRip
Формат видео: AVI
Видео: 688x384 (1.79:1), 25 fps, XviD build 73 ~1811 kbps avg, 0.27 bit/pixel
Аудио: 48 kHz, AC3 Dolby Digital, 2/0 (L,R) ch, ~192 kbps - многоголосый
Аудио: 48 kHz, AC3 Dolby Digital, 2/0 (L,R) ch, ~192 kbps - оригинал (отдельным файлом)

MediaInfo

Общее
Полное имя : H:\Steppenwolf.1974.dvdrip_[1.46]_[teko]\Steppenwolf.1974.dvdrip_[1.46].avi
Формат : AVI
Формат/Информация : Audio Video Interleave
Размер файла : 1,45 Гбайт
Продолжительность : 1 ч. 43 м.
Общий поток : 2013 Кбит/сек
Программа кодирования : VirtualDubMod 1.5.10.3 | www.virtualdub-fr.org || (build 2550/release)
Библиотека кодирования : VirtualDubMod build 2550/release
Видео
Идентификатор : 0
Формат : MPEG-4 Visual
Профиль формата : Advanced Simple@L5
Параметр BVOP формата : 1
Параметр QPel формата : Нет
Параметр GMC формата : Без точки перехода
Параметр матрицы формата : Выборочная
Идентификатор кодека : XVID
Идентификатор кодека/Подсказка : XviD
Продолжительность : 1 ч. 43 м.
Битрейт : 1812 Кбит/сек
Ширина : 688 пикселей
Высота : 384 пикселя
Соотношение сторон : 16:9
Частота кадров : 25,000 кадров/сек
Цветовое пространство : YUV
Субдискретизация насыщенности : 4:2:0
Битовая глубина : 8 бит
Тип развёртки : Прогрессивная
Метод сжатия : С потерями
Бит/(Пиксели*Кадры) : 0.274
Размер потока : 1,31 Гбайт (90%)
Библиотека кодирования : XviD 73
Аудио
Идентификатор : 1
Формат : AC-3
Формат/Информация : Audio Coding 3
Расширение режима : CM (complete main)
Параметр Endianness формата : Big
Идентификатор кодека : 2000
Продолжительность : 1 ч. 43 м.
Вид битрейта : Постоянный
Битрейт : 192 Кбит/сек
Каналы : 2 канала
Расположение каналов : Front: L R
Частота : 48,0 КГц
Битовая глубина : 16 бит
Метод сжатия : С потерями
Размер потока : 142 Мбайт (10%)
Выравнивание : Разделение по промежуткам
Продолжительность промежутка : 40 мс. (1,00 видеокадр)
Время предзагрузки промежутка : 500 мс.
[teatrix.ru].t12784.torrent 
Торрент: Зарегистрирован [ 2016-01-14 00:15 ] · 1C1F64BD05B4B92DBD65B219248BC25F501C36AB

Скачать .torrent

Скачать

17 KB

Статус: проверено
Скачан: 0 раз
Размер: 1.59 GB
terms.php



Быстрый ответ

Имя:

      
Для отправки сообщений необходимо включить JavaScript
Показать сообщения:    

Текущее время: 05-Дек 01:24

Часовой пояс: UTC + 3


Вы можете начинать темы
Вы можете отвечать на сообщения
Вы не можете редактировать свои сообщения
Вы не можете удалять свои сообщения
Вы не можете голосовать в опросах
Вы не можете прикреплять файлы к сообщениям
Вы можете скачивать файлы