Аккаттоне / Accattone (Пьер Паоло Пазолини / Pier Paolo Pasolini) [1961, Италия, драма, DVDRip] MVO («Somewax») + DVO (ГТРК «Культура») + Original Ita


Статистика раздачи [Обновить пиров]
Размер:  2 GB   |    Зарегистрирован:  10 месяцев 21 день   |    Скачан:  0 раз
Сидов:  2  [  0 KB/s  ]   Подробная статистика пиров
 
   
 
 
 

[Цитировать]

Аккаттоне / Accattone
Страна: Италия
Жанр: драма
Год выпуска: 1961
Продолжительность: 01:53:46
Перевод: Профессиональный (многоголосый закадровый) «Somewax»
Перевод 2: Профессиональный (двухголосый закадровый) ГТРК «Культура»
Cубтитры: нет
Оригинальная аудиодорожка: итальянский
Режиссер: Пьер Паоло Пазолини / Pier Paolo Pasolini
В ролях: Франко Читти /Franco Citti/, Франка Пазут /Franca Pasut/, Сильвана Корсини /Silvana Corsini/, Паоло Гвиди /Paolo Guidi/, Адриана Асти /Adriana Asti/, Ренато Капонья /Renato Capogna/, Роберто Скаринджелла /Roberto Scaringella/, Марио Киприани /Mario Cipriani/, Пьеро Морджа /Piero Morgia/, Умберто Бевилаква /Umberto Bevilacqua/
Описание: Первый художественный, черно-белый фильм писателя, снятый накануне его сорокалетия в стиле классического неореализма, но со своим уже почерком, посвящен изучению дна Вечного города, мира нищеты и мелкого воровства.
Витторио по прозвищу Аккаттоне - типичный бездельник и, по большому счету, неудачник, живущий в трущобах Рима. Он всегда относился к женщинам пренебрежительно, просто пользуясь ими, как вещами. Но однажды он попал в настоящую передрягу из-за своей девушки: по его вине она оказалась в тюрьме и ее брат, узнав об этом, сильно избивает Витторио. Вынужденный спасаться бегством, он превращается в истерзанного, голодающего бродягу. И в этот сложный период его жизни он по-настоящему влюбляется...
Режиссер использует непрофессиональных актеров для создания более живых образов безнадежно мрачного окружения. Ассистентом был Бернардо Бертолуччи. Картина была показана на Венецианском фестивале 1961 года, и критики приветствовали ее как свидетельство возрождения итальянского неореализма. Однако собственный стиль Пазолини в монтаже и применении крупных планов, в использовании музыки Баха, призванной, по его словам, придать картине характер священнодействия, не позволяет безоговорочно отнести ленту к этому направлению. Гран-При Карлови Вары.
Доп. информация:-Награды:

скрытый текст

Британская академия, 1963 год
Номинации (1):
Лучший иностранный актер (Франко Читти)
-Сэмпл: http://multi-up.com/1084114
Качество видео: DVDRip
Формат видео: AVI
Видео: 704x528 (1.33:1), 25 fps, XviD build 50 ~2061 kbps avg, 0.22 bit/pixel
Аудио: 48 kHz, AC3 Dolby Digital, 1/0 (C) ch, ~128 kbps «Somewax»
Аудио 2: 48 kHz, AC3 Dolby Digital, 1/0 (C) ch, ~128 kbps ГТРК «Культура»
Аудио 3: 48 kHz, AC3 Dolby Digital, 2/0 (L,R) ch, ~192 kbps

MediaInfo

Общее
Полное имя : D:\Accattone (Pier Paolo Pasolini, 1961) DVDRip (2xRus, Ita).avi
Формат : AVI
Формат/Информация : Audio Video Interleave
Профиль формата : OpenDML
Размер файла : 2,00 Гбайт
Продолжительность : 1 ч. 53 м.
Общий поток : 2511 Кбит/сек
Название фильма : Accattone (Pier Paolo Pasolini, 1961) DVDRip (2xRus, Ita)
Режиссёр : Maksmet
Программа кодирования : VirtualDubModRus 1.5.10.2 (build 2542/release)
Библиотека кодирования : VirtualDubMod build 2542/release
Формат оригинала/Имя : Movie
Авторское право
Примечание : 12.01.2016
Видео
Идентификатор : 0
Формат : MPEG-4 Visual
Профиль формата : Advanced Simple@L5
Параметр BVOP формата : 1
Параметр QPel формата : Нет
Параметр GMC формата : Без точки перехода
Параметр матрицы формата : Выборочная
Идентификатор кодека : XVID
Идентификатор кодека/Подсказка : XviD
Продолжительность : 1 ч. 53 м.
Битрейт : 2043 Кбит/сек
Ширина : 704 пикселя
Высота : 528 пикселей
Соотношение сторон : 4:3
Частота кадров : 25,000 кадров/сек
Цветовое пространство : YUV
Субдискретизация насыщенности : 4:2:0
Битовая глубина : 8 бит
Тип развёртки : Прогрессивная
Метод сжатия : С потерями
Бит/(Пиксели*Кадры) : 0.220
Размер потока : 1,62 Гбайт (81%)
Библиотека кодирования : XviD 1.2.1 (UTC 2008-12-04)
Аудио #1
Идентификатор : 1
Формат : AC-3
Формат/Информация : Audio Coding 3
Расширение режима : CM (complete main)
Параметр Endianness формата : Big
Идентификатор кодека : 2000
Продолжительность : 1 ч. 51 м.
Вид битрейта : Постоянный
Битрейт : 128 Кбит/сек
Каналы : 1 канал
Расположение каналов : Front: C
Частота : 48,0 КГц
Метод сжатия : С потерями
Размер потока : 102 Мбайт (5%)
Выравнивание : Разделение по промежуткам
Продолжительность промежутка : 41 мс. (1,02 видеокадр)
Время предзагрузки промежутка : 500 мс.
Аудио #2
Идентификатор : 2
Формат : AC-3
Формат/Информация : Audio Coding 3
Расширение режима : CM (complete main)
Параметр Endianness формата : Big
Идентификатор кодека : 2000
Продолжительность : 1 ч. 53 м.
Вид битрейта : Постоянный
Битрейт : 128 Кбит/сек
Каналы : 1 канал
Расположение каналов : Front: C
Частота : 48,0 КГц
Метод сжатия : С потерями
Размер потока : 104 Мбайт (5%)
Выравнивание : Разделение по промежуткам
Продолжительность промежутка : 40 мс. (1,00 видеокадр)
Время предзагрузки промежутка : 500 мс.
Аудио #3
Идентификатор : 3
Формат : AC-3
Формат/Информация : Audio Coding 3
Расширение режима : CM (complete main)
Параметр Endianness формата : Big
Идентификатор кодека : 2000
Продолжительность : 1 ч. 51 м.
Вид битрейта : Постоянный
Битрейт : 192 Кбит/сек
Каналы : 2 канала
Расположение каналов : Front: L R
Частота : 48,0 КГц
Метод сжатия : С потерями
Размер потока : 153 Мбайт (8%)
Выравнивание : Разделение по промежуткам
Продолжительность промежутка : 41 мс. (1,02 видеокадр)
Время предзагрузки промежутка : 500 мс.

Скриншот c названием фильма

Скриншоты

[teatrix.ru].t12788.torrent 
Торрент: Зарегистрирован [ 2016-01-14 04:25 ] · 4C4E8D072A412B6212B8293F5666C37F1F540E66

Скачать .torrent

Скачать

11 KB

Статус: проверено
Скачан: 0 раз
Размер: 2 GB
terms.php



Быстрый ответ

Имя:

      
Для отправки сообщений необходимо включить JavaScript
Показать сообщения:    

Текущее время: 04-Дек 04:58

Часовой пояс: UTC + 3


Вы можете начинать темы
Вы можете отвечать на сообщения
Вы не можете редактировать свои сообщения
Вы не можете удалять свои сообщения
Вы не можете голосовать в опросах
Вы не можете прикреплять файлы к сообщениям
Вы можете скачивать файлы