Любить, пить и петь / Aimer, boire et chanter (Ален Рене / Alain Resnais) [2014, Франция, драма, мелодрама, комедия, HDRip] VO


 

[Цитировать]

Любить, пить и петь / Aimer, boire et chanter Страна: Франция
Жанр: драма, мелодрама, комедия
Год выпуска: 2014
Продолжительность: 01:48:06
Перевод: Одноголосый закадровый - Lord32x
Cубтитры: нет
Оригинальная аудиодорожка: нет
Режиссер: Ален Рене / Alain Resnais
В ролях: Сабин Азема, Сандрин Киберлэн, Каролин Сиоль, Андре Дюссолье, Ипполит Жирардо, Мишель Вюйермоз, Альба Гайя Крагеде Беллуджи, Жерар Лартиго.
Описание: Великобритания, Йоркшир. Три пары (Катрин и Колин, Тамара и Джек, Моника и Симон) шокированы новостью о том, что их общий товарищ Джордж Райли неизлечимо болен, и ему осталось жить всего несколько месяцев. Пытаясь как-то ему помочь, они пригласили его в свою аматорскую театральную труппу, но репетиции заставили их вспомнить некоторые истории из их прошлого. Когда же Джордж решает провести свой последний отпуск на острове Тенериф, каждая из женщин желает стать его спутницей, и это приводит их мужей в ужас.

Исходник - aimer.boire.et.chanter.2014.french.1080p.bluray.x264-rough с фр. трекера

Качество видео: HDRip
Формат видео: AVI
Видео: 688x288 (2.39:1), 23.976 fps, XviD build 50 ~829 kbps avg, 0.17 bit/pixel
Аудио: 48 kHz, MPEG Layer 3, 2 ch, ~128.00 kbps avg

MediaInfo

General
Complete name : D:\Public\aimer.boire.et.chanter.2014.hdrip.rus.avi
Format : AVI
Format/Info : Audio Video Interleave
File size : 748 MiB
Duration : 1h 48mn
Overall bit rate : 967 Kbps
Writing application : VirtualDubMod 1.5.10.2 (build 2542/release)
Writing library : VirtualDubMod build 2542/release
Video
ID : 0
Format : MPEG-4 Visual
Format profile : Advanced Simple@L5
Format settings, BVOP : 1
Format settings, QPel : No
Format settings, GMC : No warppoints
Format settings, Matrix : Custom
Codec ID : XVID
Codec ID/Hint : XviD
Duration : 1h 48mn
Bit rate : 830 Kbps
Width : 688 pixels
Height : 288 pixels
Display aspect ratio : 2.40:1
Frame rate : 23.976 fps
Color space : YUV
Chroma subsampling : 4:2:0
Bit depth : 8 bits
Scan type : Progressive
Compression mode : Lossy
Bits/(Pixel*Frame) : 0.175
Stream size : 642 MiB (86%)
Writing library : XviD 1.2.1 (UTC 2008-12-04)
Audio
ID : 1
Format : MPEG Audio
Format version : Version 1
Format profile : Layer 3
Codec ID : 55
Codec ID/Hint : MP3
Duration : 1h 48mn
Bit rate mode : Constant
Bit rate : 128 Kbps
Channel(s) : 2 channels
Sampling rate : 48.0 KHz
Compression mode : Lossy
Stream size : 99.0 MiB (13%)
Alignment : Aligned on interleaves
Interleave, duration : 42 ms (1.00 video frame)
Interleave, preload duration : 504 ms
Writing library : LAME3.98r
Encoding settings : -m s -V 4 -q 2 -lowpass 17 -b 128

Скриншот c названием фильма

Скриншоты




Показать сообщения:    

Текущее время: 08-Дек 03:07

Часовой пояс: UTC + 3


Вы не можете начинать темы
Вы не можете отвечать на сообщения
Вы не можете редактировать свои сообщения
Вы не можете удалять свои сообщения
Вы не можете голосовать в опросах
Вы не можете прикреплять файлы к сообщениям
Вы не можете скачивать файлы