Мустанг / Mustang (Дениз Гамзе Эргювен / Deniz Gamze Ergüven) [2015, Турция, Франция, Катар, Германия, драма, WEB-DLRip] MVO


Статистика раздачи [Обновить пиров]
Размер:  1.45 GB   |    Зарегистрирован:  10 месяцев 19 дней   |    Скачан:  0 раз

Полного источника не было: Никогда

 
   
 
 
 

[Цитировать]

Мустанг / Mustang-«Their spirit would never be broken»- Страна: Турция, Франция, Катар, Германия
Жанр: драма
Год выпуска: 2015
Продолжительность: 01:37:08
Перевод: Профессиональный (многоголосый закадровый) - | iTunes |
Cубтитры: нет
Оригинальная аудиодорожка: нет-Режиссер: Дениз Гамзе Эргювен / Deniz Gamze Ergüven-В ролях: Гюнеш Шенсой, Дога Зейнеп Догуслу, Элит Ишчан, Тугба Сунгуроглу, Илаида Акдоган, Нихал Г. Колдаш, Айберк Пекджан, Бахар Керимоглу, Бурак Йийит, Эрол Афсин...-Описание: В деревне на севере Турции пятеро сестер-подростков возвращаются из школы, беззаботно резвясь с мальчишками. Консервативные воспитатели считают эти невинные игры непозволительными и всерьез берутся за воспитание девушек. Жизнь юных сестер круто меняется: дом становится тюрьмой, школу заменяют уроки домашнего хозяйства, начинаются приготовления к принудительным свадьбам. Но жизнелюбивые девушки не собираются мириться с традициями, ограничивающими их свободу…- -Качество видео: WEB-DLRip | WEB-DL 1080p |
Формат видео: AVI
Видео: 720x304, 24.000 fps, XviD build 73 ~1742 kbps avg, 0.332 bit/pixel
Аудио: 48 kHz, AC3 Dolby Digital, 3/2 (L,C,R,l,r) + LFE ch, ~384.00 kbps
-

Дополнительно о фильме:

MediaInfo

General
Complete name : Mustang.2015.P.WEB-DLRip.By_Flash.avi
Format : AVI
Format/Info : Audio Video Interleave
File size : 1.45 GiB
Duration : 1h 37mn
Overall bit rate : 2 136 Kbps
Writing application : VirtualDubMod 1.5.10.3 | www.virtualdub-fr.org || (build 2550/release)
Writing library : VirtualDubMod build 2550/release
Video
ID : 0
Format : MPEG-4 Visual
Format profile : Advanced Simple@L5
Format settings, BVOP : 1
Format settings, QPel : No
Format settings, GMC : No warppoints
Format settings, Matrix : Custom
Codec ID : XVID
Codec ID/Hint : XviD
Duration : 1h 37mn
Bit rate : 1 742 Kbps
Width : 720 pixels
Height : 304 pixels
Display aspect ratio : 2.35:1
Frame rate : 24.000 fps
Color space : YUV
Chroma subsampling : 4:2:0
Bit depth : 8 bits
Scan type : Progressive
Compression mode : Lossy
Bits/(Pixel*Frame) : 0.332
Stream size : 1.18 GiB (82%)
Writing library : XviD 73
Audio
ID : 1
Format : AC-3
Format/Info : Audio Coding 3
Mode extension : CM (complete main)
Format settings, Endianness : Big
Codec ID : 2000
Duration : 1h 37mn
Bit rate mode : Constant
Bit rate : 384 Kbps
Channel(s) : 6 channels
Channel positions : Front: L C R, Side: L R, LFE
Sampling rate : 48.0 KHz
Bit depth : 16 bits
Compression mode : Lossy
Stream size : 267 MiB (18%)
Alignment : Split accross interleaves
Interleave, duration : 42 ms (1.00 video frame)
Interleave, preload duratio : 500 ms

Скриншот c названием фильма

Скриншоты

[teatrix.ru].t12791.torrent 
Торрент: Зарегистрирован [ 2016-01-14 04:25 ] · 029B08C39B0ED0E439C6139E9AB979FEE92E3D9A

Скачать .torrent

Скачать

15 KB

Статус: проверено
Скачан: 0 раз
Размер: 1.45 GB
terms.php



Быстрый ответ

Имя:

      
Для отправки сообщений необходимо включить JavaScript
Показать сообщения:    

Текущее время: 03-Дек 03:15

Часовой пояс: UTC + 3


Вы можете начинать темы
Вы можете отвечать на сообщения
Вы не можете редактировать свои сообщения
Вы не можете удалять свои сообщения
Вы не можете голосовать в опросах
Вы не можете прикреплять файлы к сообщениям
Вы можете скачивать файлы