Сатирикон Феллини / Fellini - Satyricon (Федерико Феллини / Federico Fellini) [1969, Италия, фэнтези, драма, история, BDRip 720p] 2x MVO (ВидеоИмпульс, SomeWax) + DVO (НТВ+) + Original (Ita) + Sub (Rus, Eng)


 

[Цитировать]

Сатирикон Феллини / Fellini - Satyricon
«Rome. Before Christ. After Fellini»
- Страна: Италия
Жанр: фэнтези, драма, история
Год выпуска: 1969
Продолжительность: 02:09:43-Перевод №1: Профессиональный (многоголосый, закадровый) - ВидеоИмпульс
Перевод №2: Профессиональный (многоголосый, закадровый) - SomeWax
Перевод №3: Профессиональный (двухголосый, закадровый) - НТВ+
Оригинальная аудиодорожка: Italian
Cубтитры: Русские (полные - ThePooh & Co.), English (full)
Навигация по главам: присутствует - 25 глав-Режиссер: Федерико Феллини / Federico Fellini
В ролях: Мартин Поттер, Хирам Келлер, Макс Борн, Сальво Рандоне, Марио Романьоли, Лючия Бозе, Магали Ноэль, Капучине, Ален Кюни, Гордон Митчелл, Джордж Истмэн, Даника Ла Лоджиа, Джозеф Велер, Таня Лопер, Марчелло Ди Фалько, Элиза Майнарди, Фанфулла, Джениус, Паола Тедеско, Тито ЛеДюк-Описание: Грандиозная мистерия, воссоздающая на экране фантастический мир Римской Империи времен упадка. Фантасмагория Древнего Рима и герои фильма поразительно напоминают сегодняшнее общество и наших современников: наркотики, сексуальные отношения всех видов и мастей, стремление к «полной свободе».-
Download sample-Качество видео: BDRip 720p | исх. BDRemux 1080p
Формат: MKV-Видео: 1 280x540 (2.40:1), 23.976 fps, H.264, 10852.86 kb/s
Аудио №1: 48.0 kHz, AC3 Dolby Digital, 2/0 (L,R) ch, ~192 kbps avg | Профессиональный (многоголосый, закадровый) - ВидеоИмпульс
Аудио №2: 48.0 kHz, AC3 Dolby Digital, 2/0 (L,R) ch, ~192 kbps avg | Профессиональный (многоголосый, закадровый) - SomeWax
Аудио №3: 48.0 kHz, AC3 Dolby Digital, 2/0 (L,R) ch, ~192 kbps avg | Профессиональный (двухголосый, закадровый) - НТВ+
Аудио №4: 48.0 kHz, FLAC, 1/0 (C) ch, ~567 kbps avg | Italian
Аудио №5: 48.0 kHz, AC3 Dolby Digital, 1/0 (C) ch, ~192.00 kbps avg | English - Commentary
Субтитры №1: Русские (полные - ThePooh & Co.) | *.srt
Субтитры №2: English (full) | *.srt-

MediaInfo

General
Unique ID : 213162953415271311431030900850268537114 (0xA05DB1064088A0439A3EEFF6E83F811A)
Complete name : D:\Фильмы\Рипы\Fellini - Satyricon.1969.BDRip 720p.eFK tRuAVC.mkv
Format : Matroska
Format version : Version 4 / Version 2
File size : 11.0 GiB
Duration : 2h 9mn
Overall bit rate mode : Variable
Overall bit rate : 12.2 Mbps
Movie name : Сатирикон Феллини / Fellini - Satyricon (1969) -
Encoded date : UTC 2015-12-21 07:04:45
Writing application : mkvmerge v7.6.0 ('Garden of Dreams') 64bit built on Feb 8 2015 13:04:34
Writing library : libebml v1.3.1 + libmatroska v1.4.2
Attachements : cover.jpg
DURATION : 02:06:07.727000000
NUMBER_OF_FRAMES : 829
NUMBER_OF_BYTES : 27700
_STATISTICS_WRITING_APP : mkvmerge v7.6.0 ('Garden of Dreams') 64bit built on Feb 8 2015 13:04:34
_STATISTICS_WRITING_DATE_UT : 2015-12-21 07:04:45
_STATISTICS_TAGS : BPS DURATION NUMBER_OF_FRAMES NUMBER_OF_BYTES
Video
ID : 1
Format : AVC
Format/Info : Advanced Video Codec
Format profile : High@L4.1
Format settings, CABAC : Yes
Format settings, ReFrames : 11 frames
Codec ID : V_MPEG4/ISO/AVC
Duration : 2h 9mn
Width : 1 280 pixels
Height : 540 pixels
Display aspect ratio : 2.40:1
Frame rate mode : Constant
Frame rate : 23.976 fps
Color space : YUV
Chroma subsampling : 4:2:0
Bit depth : 8 bits
Scan type : Progressive
Title : eFK tRuAVC
Writing library : x264 core 148 r2638kMod 7599210
Encoding settings : cabac=1 / ref=11 / deblock=1:-3:-3 / analyse=0x3:0x113 / me=umh / subme=11 / psy=1 / fade_compensate=0.00 / psy_rd=1.10:0.05 / mixed_ref=1 / me_range=48 / chroma_me=1 / trellis=2 / 8x8dct=1 / cqm=0 / deadzone=21,11 / fast_pskip=0 / chroma_qp_offset=-3 / threads=12 / lookahead_threads=3 / sliced_threads=0 / nr=0 / decimate=1 / interlaced=0 / bluray_compat=0 / constrained_intra=0 / fgo=0 / bframes=16 / b_pyramid=2 / b_adapt=2 / b_bias=0 / direct=3 / weightb=1 / open_gop=0 / weightp=2 / keyint=250 / keyint_min=23 / scenecut=40 / intra_refresh=0 / rc_lookahead=60 / rc=crf / mbtree=0 / crf=17.6000 / qcomp=0.60 / qpmin=0 / qpmax=69 / qpstep=4 / vbv_maxrate=62500 / vbv_bufsize=78125 / crf_max=0.0 / nal_hrd=none / filler=0 / ip_ratio=1.40 / pb_ratio=1.30 / aq=3:0.85
Language : Italian
Default : Yes
Forced : No
Color range : Limited
Color primaries : BT.709
Transfer characteristics : BT.709
Matrix coefficients : BT.709
DURATION : 02:09:42.984000000
NUMBER_OF_FRAMES : 186605
NUMBER_OF_BYTES : 10558454752
_STATISTICS_WRITING_APP : mkvmerge v7.6.0 ('Garden of Dreams') 64bit built on Feb 8 2015 13:04:34
_STATISTICS_WRITING_DATE_UT : 2015-12-21 07:04:45
_STATISTICS_TAGS : BPS DURATION NUMBER_OF_FRAMES NUMBER_OF_BYTES
Audio #1
ID : 2
Format : AC-3
Format/Info : Audio Coding 3
Mode extension : CM (complete main)
Format settings, Endianness : Big
Codec ID : A_AC3
Duration : 2h 9mn
Bit rate mode : Constant
Bit rate : 192 Kbps
Channel(s) : 2 channels
Channel positions : Front: L R
Sampling rate : 48.0 KHz
Compression mode : Lossy
Stream size : 178 MiB (2%)
Title : Профессиональный (многоголосый, закадровый) - ВидеоИмпульс
Language : Russian
Default : Yes
Forced : No
Audio #2
ID : 3
Format : AC-3
Format/Info : Audio Coding 3
Mode extension : CM (complete main)
Format settings, Endianness : Big
Codec ID : A_AC3
Duration : 2h 9mn
Bit rate mode : Constant
Bit rate : 192 Kbps
Channel(s) : 2 channels
Channel positions : Front: L R
Sampling rate : 48.0 KHz
Compression mode : Lossy
Stream size : 178 MiB (2%)
Title : Профессиональный (многоголосый, закадровый) - SomeWax
Language : Russian
Default : No
Forced : No
Audio #3
ID : 4
Format : AC-3
Format/Info : Audio Coding 3
Mode extension : CM (complete main)
Format settings, Endianness : Big
Codec ID : A_AC3
Duration : 2h 9mn
Bit rate mode : Constant
Bit rate : 192 Kbps
Channel(s) : 2 channels
Channel positions : Front: L R
Sampling rate : 48.0 KHz
Compression mode : Lossy
Stream size : 178 MiB (2%)
Title : Профессиональный (двухголосый, закадровый) - НТВ+
Language : Russian
Default : No
Forced : No
Audio #4
ID : 5
Format : FLAC
Format/Info : Free Lossless Audio Codec
Codec ID : A_FLAC
Duration : 2h 9mn
Bit rate mode : Variable
Channel(s) : 1 channel
Sampling rate : 48.0 KHz
Bit depth : 24 bits
Writing library : libFLAC 20080709 (UTC 2008-07-09)
Language : Italian
Default : No
Forced : No
Audio #5
ID : 6
Format : AC-3
Format/Info : Audio Coding 3
Mode extension : CM (complete main)
Format settings, Endianness : Big
Codec ID : A_AC3
Duration : 2h 9mn
Bit rate mode : Constant
Bit rate : 192 Kbps
Channel(s) : 1 channel
Channel positions : Front: C
Sampling rate : 48.0 KHz
Compression mode : Lossy
Stream size : 178 MiB (2%)
Title : commentary
Language : English
Default : No
Forced : No
Text #1
ID : 7
Format : UTF-8
Codec ID : S_TEXT/UTF8
Codec ID/Info : UTF-8 Plain Text
Title : полные - ThePooh & Co.
Language : Russian
Default : No
Forced : No
Text #2
ID : 8
Format : UTF-8
Codec ID : S_TEXT/UTF8
Codec ID/Info : UTF-8 Plain Text
Title : full
Language : English
Default : No
Forced : No
Menu
00:00:00.000 : en:00:00:00.000
00:03:17.572 : en:00:03:17.572
00:05:06.514 : en:00:05:06.514
00:11:16.300 : en:00:11:16.300
00:13:37.024 : en:00:13:37.024
00:21:58.191 : en:00:21:58.191
00:23:46.758 : en:00:23:46.758
00:42:32.841 : en:00:42:32.841
00:45:39.987 : en:00:45:39.987
00:49:38.767 : en:00:49:38.767
00:51:21.161 : en:00:51:21.161
00:59:21.933 : en:00:59:21.933
01:04:28.364 : en:01:04:28.364
01:08:01.577 : en:01:08:01.577
01:15:41.119 : en:01:15:41.119
01:21:51.281 : en:01:21:51.281
01:25:42.095 : en:01:25:42.095
01:34:24.867 : en:01:34:24.867
01:41:14.026 : en:01:41:14.026
01:45:06.091 : en:01:45:06.091
01:53:04.486 : en:01:53:04.486
01:55:51.611 : en:01:55:51.611
02:00:59.669 : en:02:00:59.669
02:06:33.252 : en:02:06:33.252
02:07:50.412 : en:02:07:50.412

x264 log

x264 [info]: frame I:1053 Avg QP:16.55 size:132512
x264 [info]: frame P:33407 Avg QP:17.78 size: 83986
x264 [info]: frame B:152145 Avg QP:19.92 size: 50039
x264 [info]: consecutive B-frames: 0.9% 0.8% 3.1% 9.4% 10.3% 60.2% 4.8% 1.4% 1.7% 1.4% 1.6% 3.2% 0.6% 0.3% 0.2% 0.1% 0.2%
x264 [info]: mb I I16..4: 7.4% 81.0% 11.6%
x264 [info]: mb P I16..4: 0.2% 42.9% 1.8% P16..4: 17.5% 24.1% 11.9% 0.0% 0.0% skip: 1.7%
x264 [info]: mb B I16..4: 0.0% 15.2% 0.1% B16..8: 33.9% 21.7% 7.2% direct:12.8% skip: 9.0% L0:47.2% L1:38.9% BI:14.0%
x264 [info]: 8x8 transform intra:97.2% inter:60.3%
x264 [info]: direct mvs spatial:99.9% temporal:0.1%
x264 [info]: coded y,uvDC,uvAC intra: 99.7% 97.1% 90.8% inter: 71.2% 54.8% 14.4%
x264 [info]: i16 v,h,dc,p: 16% 4% 36% 44%
x264 [info]: i8 v,h,dc,ddl,ddr,vr,hd,vl,hu: 7% 7% 17% 10% 12% 11% 12% 10% 13%
x264 [info]: i4 v,h,dc,ddl,ddr,vr,hd,vl,hu: 9% 6% 9% 10% 15% 13% 14% 11% 14%
x264 [info]: i8c dc,h,v,p: 61% 15% 11% 13%
x264 [info]: Weighted P-Frames: Y:13.9% UV:8.2%
x264 [info]: ref P L0: 32.6% 11.1% 18.8% 8.4% 7.6% 5.1% 5.1% 2.9% 3.0% 2.4% 2.6% 0.3% 0.0%
x264 [info]: ref B L0: 59.6% 14.2% 8.2% 4.9% 3.8% 3.3% 2.7% 1.9% 1.1% 0.4%
x264 [info]: ref B L1: 90.0% 10.0%
x264 [info]: kb/s:10852.86
x264 [total]: encoded 186605 frames, 5.08 fps, 10852.86 kb/s, duration 10:12:44.28

Comparison

Source

Encode
  • На отсутствующий фрагмент в дорожке SomeWax кусочек ВидеоИмпульса.
  • За дорожку ВидеоИмпульс спасибо Nail Lowe, за НТВ+ - lizing48.



Показать сообщения:    

Текущее время: 08-Дек 01:20

Часовой пояс: UTC + 3


Вы не можете начинать темы
Вы не можете отвечать на сообщения
Вы не можете редактировать свои сообщения
Вы не можете удалять свои сообщения
Вы не можете голосовать в опросах
Вы не можете прикреплять файлы к сообщениям
Вы не можете скачивать файлы