(Classical) Joseph Haydn - Piano Sonatas Nos. 10, 38, 42, 60 - Tzimon Barto - 2009, FLAC (image+.cue) lossless


 

[Цитировать]

Joseph Haydn - Piano Sonatas Nos. 10, 38, 42, 60 - Tzimon Barto
Жанр: Classical
Страна-производитель диска: Finland
Год издания диска: 2009
Издатель (лейбл): Ondine
Номер по каталогу: ODE 1154-2
Дата записи: 2008
Аудиокодек: FLAC
Тип рипа: image+.cue
Битрейт аудио: lossless
Продолжительность: 77:23
Источник: собственный рип
Наличие сканов в содержимом раздачи: да
Треклист:
Joseph Haydn
[1]-[3] Sonata No.10 in C major, Hob. XVI:1
[4]-[6] Sonata No.38 in F major, Hob. XVI:23
[7]-[9] Sonata No.42 in G major, Hob. XVI:27
[10]-[12] Sonata No.60 in C major, Hob. XVI:50
Исполнители:
Tzimon Barto piano

Лог создания рипа

Exact Audio Copy V1.0 beta 3 from 29. August 2011
EAC extraction logfile from 27. April 2015, 23:52
Tzimon Barto / Haydn - Piano Sonatas
Used drive : HL-DT-STDVDRAM GU70N Adapter: 0 ID: 0
Read mode : SecureUtilize accurate stream : YesDefeat audio cache : YesMake use of C2 pointers : No
Read offset correction : 48Overread into Lead-In and Lead-Out : NoFill up missing offset samples with silence : YesDelete leading and trailing silent blocks : NoNull samples used in CRC calculations : YesUsed interface : Native Win32 interface for Win NT & 2000
Used output format : User Defined EncoderSelected bitrate : 128 kBit/sQuality : HighAdd ID3 tag : NoCommand line compressor : C:\Program Files (x86)\Exact Audio Copy\Flac\flac.exeAdditional command line options : -V -8 -T "Date=%year%" -T "Genre=%genre%" %source%
TOC of the extracted CD
Track | Start | Length | Start sector | End sector --------------------------------------------------------- 1 | 0:00.00 | 3:16.20 | 0 | 14719 2 | 3:16.20 | 6:54.59 | 14720 | 45828 3 | 10:11.04 | 4:41.07 | 45829 | 66910 4 | 14:52.11 | 8:25.74 | 66911 | 104859 5 | 23:18.10 | 10:15.45 | 104860 | 151029 6 | 33:33.55 | 3:52.22 | 151030 | 168451 7 | 37:26.02 | 5:28.23 | 168452 | 193074 8 | 42:54.25 | 8:18.30 | 193075 | 230454 9 | 51:12.55 | 3:17.39 | 230455 | 245268 10 | 54:30.19 | 12:29.71 | 245269 | 301514 11 | 67:00.15 | 7:20.41 | 301515 | 334555 12 | 74:20.56 | 3:00.48 | 334556 | 348103
Range status and errors
Selected range
Filename C:\temp\Haydn - Piano Sonatas - Barto\Haydn - Piano Sonatas.wav
Peak level 97.7 % Extraction speed 2.3 X Range quality 99.9 % Test CRC 8AEADC8F Copy CRC 8AEADC8F Copy OK
No errors occurred
AccurateRip summary
Track 1 accurately ripped (confidence 4) [1FD7BC9E] (AR v2)Track 2 accurately ripped (confidence 4) [48DCB79D] (AR v2)Track 3 accurately ripped (confidence 4) [0F3B10B1] (AR v2)Track 4 accurately ripped (confidence 4) [1173B88A] (AR v2)Track 5 accurately ripped (confidence 4) [2ABEA433] (AR v2)Track 6 accurately ripped (confidence 4) [C62D33C0] (AR v2)Track 7 accurately ripped (confidence 4) [F540332F] (AR v2)Track 8 accurately ripped (confidence 4) [0D4FAC98] (AR v2)Track 9 accurately ripped (confidence 4) [14107FB5] (AR v2)Track 10 accurately ripped (confidence 4) [D6DEE5CC] (AR v2)Track 11 accurately ripped (confidence 4) [FEB240CA] (AR v2)Track 12 accurately ripped (confidence 4) [A2AF5FFD] (AR v2)
All tracks accurately ripped
End of status report
==== Log checksum 3AFEE072BC25757AB83EB2A726F4B4D151B11BB7BCD4F722C8E292BA54DCDE82 ====



Показать сообщения:    

Текущее время: 08-Дек 03:08

Часовой пояс: UTC + 3


Вы не можете начинать темы
Вы не можете отвечать на сообщения
Вы не можете редактировать свои сообщения
Вы не можете удалять свои сообщения
Вы не можете голосовать в опросах
Вы не можете прикреплять файлы к сообщениям
Вы не можете скачивать файлы