(Score) Санта Клаус / The Santa Clause (by Michael Convertino) - 1994, FLAC (tracks+.cue), lossless


Статистика раздачи [Обновить пиров]
Размер:  219 MB   |    Зарегистрирован:  10 месяцев 20 дней   |    Скачан:  0 раз

Полного источника не было: Никогда

 
   
 
 
 

[Цитировать]

Санта Клаус / The Santa Clause-Жанр: Score
Композитор: Michael Convertino
Год выпуска диска: 1994
Производитель диска: Sonopress, Germany
Издатель (лейбл): Milan France
Номер по каталогу: 74321 32364-2-Аудиокодек: FLAC (*.flac)
Тип рипа: tracks+.cue
Битрейт аудио: lossless
Продолжительность: 00:40:27
Источник: собственный рип
Наличие сканов в содержимом раздачи: да, 600 dpi-Ссылки: Кинопоиск | IMDB | Wikipedia | SoundtrackCollector
MP3: (Score) Санта Клаус / The Santa Clause (by Michael Convertino) - 1994, MP3 (tracks) 320 kbps

Треклист

01. Yello / Jingle Bells [0:04:47.70]
02. Drifters / White Christmas [0:02:39.45]
03. Let's Go [0:01:01.73]
04. Believing Is Seeing [0:03:24.60]
05. The Sash Completes The Ensemble [0:01:03.45]
06. Flight [0:00:45.70]
07. Weightless [0:01:32.55]
08. Away To The Window [0:02:10.47]
09. Loreena McKennit / The Bells Of Christmas [0:02:20.50]
10. Listen [0:03:05.10]
11. Goodnight Goodnight [0:01:07.35]
12. Visitation [0:02:19.20]
13. Rose Suchak Ladder [0:01:29.63]
14. The List [0:01:23.10]
15. Elves With Attitude [0:00:49.70]
16. Someone In Wrapping [0:01:30.57]
17. Near Capture [0:00:46.65]
18. Comfort And Joy [0:02:09.60]
19. Not Over Any Oceans [0:01:49.38]
20. Brenda Russel & Howard Hewett / Christmas Will Return [0:04:04.52]

Лог создания рипа

Exact Audio Copy V1.1 from 23. June 2015
EAC extraction logfile from 8. January 2016, 12:27
Michael Convertino / The Santa Clause
Used drive : PLEXTOR CD-R PX-230A Adapter: 1 ID: 0
Read mode : SecureUtilize accurate stream : YesDefeat audio cache : YesMake use of C2 pointers : No
Read offset correction : 738Overread into Lead-In and Lead-Out : NoFill up missing offset samples with silence : YesDelete leading and trailing silent blocks : NoNull samples used in CRC calculations : YesUsed interface : Native Win32 interface for Win NT & 2000Gap handling : Appended to previous track
Used output format : User Defined EncoderSelected bitrate : 1024 kBit/sQuality : HighAdd ID3 tag : NoCommand line compressor : C:\Program Files (x86)\Exact Audio Copy\FLAC\FLAC.EXEAdditional command line options : -6 -V -T "ARTIST=%artist%" -T "TITLE=%title%" -T "ALBUM=%albumtitle%" -T "DATE=%year%"-T "TRACKNUMBER=%tracknr%" -T "GENRE=%genre%" -T "COMMENT=%comment%" -T "ALBUMARTIST=%albuminterpret%" -T "COMPOSER=%composer%"-T "DISCNUMBER=%cdnumber%" -T "TOTALDISCS=%totalcds%" -T "TOTALTRACKS=%numtracks%" %source% -o %dest%
TOC of the extracted CD
Track | Start | Length | Start sector | End sector --------------------------------------------------------- 1 | 0:00.32 | 4:47.70 | 32 | 21626 2 | 4:48.27 | 2:39.45 | 21627 | 33596 3 | 7:27.72 | 1:01.73 | 33597 | 38244 4 | 8:29.70 | 3:24.60 | 38245 | 53604 5 | 11:54.55 | 1:03.45 | 53605 | 58374 6 | 12:58.25 | 0:45.70 | 58375 | 61819 7 | 13:44.20 | 1:32.55 | 61820 | 68774 8 | 15:17.00 | 2:10.47 | 68775 | 78571 9 | 17:27.47 | 2:20.50 | 78572 | 89121 10 | 19:48.22 | 3:05.10 | 89122 | 103006 11 | 22:53.32 | 1:07.35 | 103007 | 108066 12 | 24:00.67 | 2:19.20 | 108067 | 118511 13 | 26:20.12 | 1:29.63 | 118512 | 125249 14 | 27:50.00 | 1:23.10 | 125250 | 131484 15 | 29:13.10 | 0:49.70 | 131485 | 135229 16 | 30:03.05 | 1:30.57 | 135230 | 142036 17 | 31:33.62 | 0:46.65 | 142037 | 145551 18 | 32:20.52 | 2:09.60 | 145552 | 155286 19 | 34:30.37 | 1:49.38 | 155287 | 163499 20 | 36:20.00 | 4:04.52 | 163500 | 181851
Track 1
Filename C:\Music\01 - Yello - Jingle Bells.wav
Pre-gap length 0:00:02.32
Peak level 99.9 % Extraction speed 4.3 X Track quality 100.0 % Test CRC 2C4E0336 Copy CRC 2C4E0336 Accurately ripped (confidence 2) [40E8C849] (AR v1) Copy OK
Track 2
Filename C:\Music\02 - Drifters - White Christmas.wav
Pre-gap length 0:00:00.62
Peak level 97.2 % Extraction speed 3.8 X Track quality 100.0 % Test CRC 7EA59036 Copy CRC 7EA59036 Accurately ripped (confidence 2) [71F90EB4] (AR v1) Copy OK
Track 3
Filename C:\Music\03 - Michael Convertino - Let's Go.wav
Pre-gap length 0:00:01.45
Peak level 96.4 % Extraction speed 3.8 X Track quality 100.0 % Test CRC A5FC7071 Copy CRC A5FC7071 Accurately ripped (confidence 2) [B6D25A60] (AR v1) Copy OK
Track 4
Filename C:\Music\04 - Michael Convertino - Believing Is Seeing.wav
Peak level 91.8 % Extraction speed 5.2 X Track quality 100.0 % Test CRC 8A7519E5 Copy CRC 8A7519E5 Accurately ripped (confidence 2) [7A54BCA6] (AR v1) Copy OK
Track 5
Filename C:\Music\05 - Michael Convertino - The Sash Completes The Ensemble.wav
Peak level 35.0 % Extraction speed 3.8 X Track quality 100.0 % Test CRC 13257538 Copy CRC 13257538 Accurately ripped (confidence 2) [C909424E] (AR v1) Copy OK
Track 6
Filename C:\Music\06 - Michael Convertino - Flight.wav
Peak level 86.8 % Extraction speed 3.4 X Track quality 100.0 % Test CRC 7B552037 Copy CRC 7B552037 Accurately ripped (confidence 2) [6A317F5C] (AR v1) Copy OK
Track 7
Filename C:\Music\07 - Michael Convertino - Weightless.wav
Peak level 37.3 % Extraction speed 4.4 X Track quality 100.0 % Test CRC E80CBF8F Copy CRC E80CBF8F Accurately ripped (confidence 2) [F66F9D1D] (AR v1) Copy OK
Track 8
Filename C:\Music\08 - Michael Convertino - Away To The Window.wav
Peak level 91.8 % Extraction speed 4.8 X Track quality 100.0 % Test CRC 37D25937 Copy CRC 37D25937 Accurately ripped (confidence 2) [67BFD2A9] (AR v1) Copy OK
Track 9
Filename C:\Music\09 - Loreena McKennit - The Bells Of Christmas.wav
Peak level 94.4 % Extraction speed 4.8 X Track quality 100.0 % Test CRC 2C5074CE Copy CRC 2C5074CE Accurately ripped (confidence 2) [AA553779] (AR v1) Copy OK
Track 10
Filename C:\Music\10 - Michael Convertino - Listen.wav
Pre-gap length 0:00:00.60
Peak level 63.8 % Extraction speed 4.2 X Track quality 100.0 % Test CRC B34DCB3B Copy CRC B34DCB3B Accurately ripped (confidence 2) [540B59BF] (AR v1) Copy OK
Track 11
Filename C:\Music\11 - Michael Convertino - Goodnight Goodnight.wav
Peak level 90.8 % Extraction speed 3.9 X Track quality 100.0 % Test CRC 8AE99926 Copy CRC 8AE99926 Accurately ripped (confidence 2) [F9E93EB7] (AR v1) Copy OK
Track 12
Filename C:\Music\12 - Michael Convertino - Visitation.wav
Peak level 89.1 % Extraction speed 4.8 X Track quality 100.0 % Test CRC AD0D7CBA Copy CRC AD0D7CBA Accurately ripped (confidence 2) [CC1346A5] (AR v1) Copy OK
Track 13
Filename C:\Music\13 - Michael Convertino - Rose Suchak Ladder.wav
Peak level 28.3 % Extraction speed 4.3 X Track quality 100.0 % Test CRC 92EE2AB7 Copy CRC 92EE2AB7 Accurately ripped (confidence 2) [7CF0A001] (AR v1) Copy OK
Track 14
Filename C:\Music\14 - Michael Convertino - The List.wav
Peak level 36.2 % Extraction speed 4.2 X Track quality 100.0 % Test CRC B76DACCE Copy CRC B76DACCE Accurately ripped (confidence 2) [E108CBEB] (AR v1) Copy OK
Track 15
Filename C:\Music\15 - Michael Convertino - Elves With Attitude.wav
Peak level 89.8 % Extraction speed 3.5 X Track quality 100.0 % Test CRC 021AC569 Copy CRC 021AC569 Accurately ripped (confidence 2) [6441FAD1] (AR v1) Copy OK
Track 16
Filename C:\Music\16 - Michael Convertino - Someone In Wrapping.wav
Peak level 20.3 % Extraction speed 4.3 X Track quality 100.0 % Test CRC 982E35C8 Copy CRC 982E35C8 Accurately ripped (confidence 2) [4CDA211A] (AR v1) Copy OK
Track 17
Filename C:\Music\17 - Michael Convertino - Near Capture.wav
Peak level 27.5 % Extraction speed 3.4 X Track quality 100.0 % Test CRC 81212AF5 Copy CRC 81212AF5 Accurately ripped (confidence 2) [6971748E] (AR v1) Copy OK
Track 18
Filename C:\Music\18 - Michael Convertino - Comfort And Joy.wav
Peak level 62.3 % Extraction speed 3.9 X Track quality 99.9 % Test CRC 0B6A5B02 Copy CRC 0B6A5B02 Accurately ripped (confidence 2) [1C7EB5E2] (AR v1) Copy OK
Track 19
Filename C:\Music\19 - Michael Convertino - Not Over Any Oceans.wav
Peak level 96.9 % Extraction speed 4.5 X Track quality 100.0 % Test CRC 72163495 Copy CRC 72163495 Accurately ripped (confidence 2) [F2EF098E] (AR v1) Copy OK
Track 20
Filename C:\Music\20 - Brenda Russel & Howard Hewett - Christmas Will Return.wav
Pre-gap length 0:00:01.70
Peak level 100.0 % Extraction speed 4.5 X Track quality 99.9 % Test CRC A5D9F717 Copy CRC A5D9F717 Accurately ripped (confidence 2) [AD1B8ABC] (AR v1) Copy OK
All tracks accurately ripped
No errors occurred
End of status report
---- CUETools DB Plugin V2.1.6
[CTDB TOCID: Uzwq8knhIW71EsxE7s5EpLqY0y0-] disk not present in databaseSubmit result: Uzwq8knhIW71EsxE7s5EpLqY0y0- has been uploaded
==== Log checksum 3EE2D0890024572F4DE0AED1932A46C78670944D191069ED871001046DD6CF15 ====

Содержание индексной карты (.CUE)

REM GENRE SoundtrackREM DATE 1994REM DISCID 19097814REM COMMENT "ExactAudioCopy v1.1"PERFORMER "Michael Convertino"TITLE "The Santa Clause"FILE "01 - Yello - Jingle Bells.wav" WAVE TRACK 01 AUDIO TITLE "Jingle Bells" PERFORMER "Yello" PREGAP 00:00:32 INDEX 01 00:00:00 TRACK 02 AUDIO TITLE "White Christmas" PERFORMER "Drifters" INDEX 00 04:47:08FILE "02 - Drifters - White Christmas.wav" WAVE INDEX 01 00:00:00 TRACK 03 AUDIO TITLE "Let's Go" PERFORMER "Michael Convertino" INDEX 00 02:38:00FILE "03 - Michael Convertino - Let's Go.wav" WAVE INDEX 01 00:00:00FILE "04 - Michael Convertino - Believing Is Seeing.wav" WAVE TRACK 04 AUDIO TITLE "Believing Is Seeing" PERFORMER "Michael Convertino" INDEX 01 00:00:00FILE "05 - Michael Convertino - The Sash Completes The Ensemble.wav" WAVE TRACK 05 AUDIO TITLE "The Sash Completes The Ensemble" PERFORMER "Michael Convertino" INDEX 01 00:00:00FILE "06 - Michael Convertino - Flight.wav" WAVE TRACK 06 AUDIO TITLE "Flight" PERFORMER "Michael Convertino" INDEX 01 00:00:00FILE "07 - Michael Convertino - Weightless.wav" WAVE TRACK 07 AUDIO TITLE "Weightless" PERFORMER "Michael Convertino" INDEX 01 00:00:00FILE "08 - Michael Convertino - Away To The Window.wav" WAVE TRACK 08 AUDIO TITLE "Away To The Window" PERFORMER "Michael Convertino" INDEX 01 00:00:00FILE "09 - Loreena McKennit - The Bells Of Christmas.wav" WAVE TRACK 09 AUDIO TITLE "The Bells Of Christmas" PERFORMER "Loreena McKennit" INDEX 01 00:00:00 TRACK 10 AUDIO TITLE "Listen" PERFORMER "Michael Convertino" INDEX 00 02:19:65FILE "10 - Michael Convertino - Listen.wav" WAVE INDEX 01 00:00:00FILE "11 - Michael Convertino - Goodnight Goodnight.wav" WAVE TRACK 11 AUDIO TITLE "Goodnight Goodnight" PERFORMER "Michael Convertino" INDEX 01 00:00:00FILE "12 - Michael Convertino - Visitation.wav" WAVE TRACK 12 AUDIO TITLE "Visitation" PERFORMER "Michael Convertino" INDEX 01 00:00:00FILE "13 - Michael Convertino - Rose Suchak Ladder.wav" WAVE TRACK 13 AUDIO TITLE "Rose Suchak Ladder" PERFORMER "Michael Convertino" INDEX 01 00:00:00FILE "14 - Michael Convertino - The List.wav" WAVE TRACK 14 AUDIO TITLE "The List" PERFORMER "Michael Convertino" INDEX 01 00:00:00FILE "15 - Michael Convertino - Elves With Attitude.wav" WAVE TRACK 15 AUDIO TITLE "Elves With Attitude" PERFORMER "Michael Convertino" INDEX 01 00:00:00FILE "16 - Michael Convertino - Someone In Wrapping.wav" WAVE TRACK 16 AUDIO TITLE "Someone In Wrapping" PERFORMER "Michael Convertino" INDEX 01 00:00:00FILE "17 - Michael Convertino - Near Capture.wav" WAVE TRACK 17 AUDIO TITLE "Near Capture" PERFORMER "Michael Convertino" INDEX 01 00:00:00FILE "18 - Michael Convertino - Comfort And Joy.wav" WAVE TRACK 18 AUDIO TITLE "Comfort And Joy" PERFORMER "Michael Convertino" INDEX 01 00:00:00FILE "19 - Michael Convertino - Not Over Any Oceans.wav" WAVE TRACK 19 AUDIO TITLE "Not Over Any Oceans" PERFORMER "Michael Convertino" INDEX 01 00:00:00 TRACK 20 AUDIO TITLE "Christmas Will Return" PERFORMER "Brenda Russel & Howard Hewett" INDEX 00 01:47:43FILE "20 - Brenda Russel & Howard Hewett - Christmas Will Return.wav" WAVE INDEX 01 00:00:00
[teatrix.ru].t12800.torrent 
Торрент: Зарегистрирован [ 2016-01-14 04:25 ] · CB5078EEC3298492B163C6B8F08CFF0E16738591

Скачать .torrent

Скачать

7 KB

Статус: проверено
Скачан: 0 раз
Размер: 219 MB
terms.php



Быстрый ответ

Имя:

      
Для отправки сообщений необходимо включить JavaScript
Показать сообщения:    

Текущее время: 03-Дек 07:41

Часовой пояс: UTC + 3


Вы можете начинать темы
Вы можете отвечать на сообщения
Вы не можете редактировать свои сообщения
Вы не можете удалять свои сообщения
Вы не можете голосовать в опросах
Вы не можете прикреплять файлы к сообщениям
Вы можете скачивать файлы