(Score) Билитис / Bilitis (by Francis Lai) - 1987 (1977), FLAC (tracks+.cue), lossless


Статистика раздачи [Обновить пиров]
Размер:  245 MB   |    Зарегистрирован:  10 месяцев 23 дня   |    Скачан:  3 раза

Полного источника не было: 1 день 23 часа

 
   
 
 
 

[Цитировать]

Билитис / Bilitis-Жанр: Score
Композитор: Francis Lai
Год выпуска диска: 1987
Год выпуска фильма: 1977
Производитель диска: ODF, France
Издатель (лейбл): Editions 23
Номер по каталогу: 80035-2-Аудиокодек: FLAC (*.flac)
Тип рипа: tracks+.cue
Битрейт аудио: lossless
Продолжительность: 00:36:36
Источник: собственный рип
Наличие сканов в содержимом раздачи: да, 600 dpi-Ссылки: Кинопоиск | IMDB | Wikipedia | SoundtrackCollector

Треклист

01. Bilitis - Générique [0:03:26.50]
02. Promenade [0:03:44.55]
03. Les 2 Nudités [0:02:23.05]
04. Spring Time Ballet [0:02:31.70]
05. L'Arbre [0:01:15.05]
06. I Need A Man [0:04:27.00]
07. Mélissa [0:04:38.45]
08. La Campagne [0:00:41.02]
09. Scène D'Amour [0:03:52.45]
10. Rainbow [0:04:35.68]
11. Bilitis - Générique De Fin [0:04:57.40]

Лог создания рипа

Exact Audio Copy V1.1 from 23. June 2015
EAC extraction logfile from 8. January 2016, 11:52
Francis Lai / Bilitis
Used drive : PLEXTOR CD-R PX-230A Adapter: 1 ID: 0
Read mode : SecureUtilize accurate stream : YesDefeat audio cache : YesMake use of C2 pointers : No
Read offset correction : 738Overread into Lead-In and Lead-Out : NoFill up missing offset samples with silence : YesDelete leading and trailing silent blocks : NoNull samples used in CRC calculations : YesUsed interface : Native Win32 interface for Win NT & 2000Gap handling : Appended to previous track
Used output format : User Defined EncoderSelected bitrate : 1024 kBit/sQuality : HighAdd ID3 tag : NoCommand line compressor : C:\Program Files (x86)\Exact Audio Copy\FLAC\FLAC.EXEAdditional command line options : -6 -V -T "ARTIST=%artist%" -T "TITLE=%title%" -T "ALBUM=%albumtitle%" -T "DATE=%year%"-T "TRACKNUMBER=%tracknr%" -T "GENRE=%genre%" -T "COMMENT=%comment%" -T "ALBUMARTIST=%albuminterpret%" -T "COMPOSER=%composer%"-T "DISCNUMBER=%cdnumber%" -T "TOTALDISCS=%totalcds%" -T "TOTALTRACKS=%numtracks%" %source% -o %dest%
TOC of the extracted CD
Track | Start | Length | Start sector | End sector --------------------------------------------------------- 1 | 0:00.33 | 3:26.50 | 33 | 15532 2 | 3:27.08 | 3:44.55 | 15533 | 32387 3 | 7:11.63 | 2:23.05 | 32388 | 43117 4 | 9:34.68 | 2:31.70 | 43118 | 54512 5 | 12:06.63 | 1:15.05 | 54513 | 60142 6 | 13:21.68 | 4:27.00 | 60143 | 80167 7 | 17:48.68 | 4:38.45 | 80168 | 101062 8 | 22:27.38 | 0:41.02 | 101063 | 104139 9 | 23:08.40 | 3:52.45 | 104140 | 121584 10 | 27:01.10 | 4:35.68 | 121585 | 142277 11 | 31:37.03 | 4:57.40 | 142278 | 164592
Track 1
Filename C:\Music\01 - Francis Lai - Bilitis - Générique.wav
Pre-gap length 0:00:02.33
Peak level 48.8 % Extraction speed 6.9 X Track quality 100.0 % Test CRC AA591390 Copy CRC AA591390 Accurately ripped (confidence 3) [56556618] (AR v2) Copy OK
Track 2
Filename C:\Music\02 - Francis Lai - Promenade.wav
Peak level 53.2 % Extraction speed 6.7 X Track quality 99.9 % Test CRC 2420403A Copy CRC 2420403A Accurately ripped (confidence 3) [DDE92A52] (AR v2) Copy OK
Track 3
Filename C:\Music\03 - Francis Lai - Les 2 Nudités.wav
Peak level 57.0 % Extraction speed 6.5 X Track quality 99.9 % Test CRC 15772796 Copy CRC 15772796 Accurately ripped (confidence 3) [493B74E6] (AR v2) Copy OK
Track 4
Filename C:\Music\04 - Francis Lai - Spring Time Ballet.wav
Peak level 55.3 % Extraction speed 7.5 X Track quality 100.0 % Test CRC BB8005A5 Copy CRC BB8005A5 Accurately ripped (confidence 2) [67340020] (AR v2) Copy OK
Track 5
Filename C:\Music\05 - Francis Lai - L'Arbre.wav
Peak level 54.1 % Extraction speed 6.7 X Track quality 100.0 % Test CRC 770E82C0 Copy CRC 770E82C0 Accurately ripped (confidence 3) [81CC3E58] (AR v2) Copy OK
Track 6
Filename C:\Music\06 - Francis Lai - I Need A Man.wav
Peak level 63.1 % Extraction speed 9.0 X Track quality 100.0 % Test CRC 0071C68C Copy CRC 0071C68C Accurately ripped (confidence 3) [AF63C7FE] (AR v2) Copy OK
Track 7
Filename C:\Music\07 - Francis Lai - Mélissa.wav
Peak level 100.0 % Extraction speed 9.8 X Track quality 100.0 % Test CRC 63803F6C Copy CRC 63803F6C Accurately ripped (confidence 2) [63BF1C3C] (AR v2) Copy OK
Track 8
Filename C:\Music\08 - Francis Lai - La Campagne.wav
Peak level 51.9 % Extraction speed 6.4 X Track quality 100.0 % Test CRC E631B49D Copy CRC E631B49D Accurately ripped (confidence 3) [5CFD1644] (AR v2) Copy OK
Track 9
Filename C:\Music\09 - Francis Lai - Scène D'Amour.wav
Peak level 67.0 % Extraction speed 9.9 X Track quality 100.0 % Test CRC CA3C1A11 Copy CRC CA3C1A11 Accurately ripped (confidence 3) [33CF8103] (AR v2) Copy OK
Track 10
Filename C:\Music\10 - Francis Lai - Rainbow.wav
Peak level 81.1 % Extraction speed 9.0 X Track quality 99.9 % Test CRC 574522FE Copy CRC 574522FE Accurately ripped (confidence 3) [DA666BD1] (AR v2) Copy OK
Track 11
Filename C:\Music\11 - Francis Lai - Bilitis - Générique De Fin.wav
Peak level 74.9 % Extraction speed 9.4 X Track quality 100.0 % Test CRC B89CADE0 Copy CRC B89CADE0 Accurately ripped (confidence 3) [09A8D677] (AR v2) Copy OK
All tracks accurately ripped
No errors occurred
End of status report
---- CUETools DB Plugin V2.1.6
[CTDB TOCID: GiF3g7fJWr8i.0GaexzVCDDdwUY-] foundSubmit result: GiF3g7fJWr8i.0GaexzVCDDdwUY- has been confirmedTrack | CTDB Status 1 | (17/17) Accurately ripped 2 | (17/17) Accurately ripped 3 | (17/17) Accurately ripped 4 | (17/17) Accurately ripped 5 | (17/17) Accurately ripped 6 | (17/17) Accurately ripped 7 | (17/17) Accurately ripped 8 | (17/17) Accurately ripped 9 | (17/17) Accurately ripped 10 | (17/17) Accurately ripped 11 | (17/17) Accurately ripped
==== Log checksum B13E1BB1193D39741D24E62B3B924D366975788D2F1067FDE7604A82742C9D0E ====

Содержание индексной карты (.CUE)

REM GENRE SoundtrackREM DATE 1977REM DISCID 9208920BREM COMMENT "ExactAudioCopy v1.1"PERFORMER "Francis Lai"TITLE "Bilitis"FILE "01 - Francis Lai - Bilitis - Generique.wav" WAVE TRACK 01 AUDIO TITLE "Bilitis - Generique" PERFORMER "Francis Lai" PREGAP 00:00:33 INDEX 01 00:00:00FILE "02 - Francis Lai - Promenade.wav" WAVE TRACK 02 AUDIO TITLE "Promenade" PERFORMER "Francis Lai" INDEX 01 00:00:00FILE "03 - Francis Lai - Les 2 Nudites.wav" WAVE TRACK 03 AUDIO TITLE "Les 2 Nudites" PERFORMER "Francis Lai" INDEX 01 00:00:00FILE "04 - Francis Lai - Spring Time Ballet.wav" WAVE TRACK 04 AUDIO TITLE "Spring Time Ballet" PERFORMER "Francis Lai" INDEX 01 00:00:00FILE "05 - Francis Lai - L'Arbre.wav" WAVE TRACK 05 AUDIO TITLE "L'Arbre" PERFORMER "Francis Lai" INDEX 01 00:00:00FILE "06 - Francis Lai - I Need A Man.wav" WAVE TRACK 06 AUDIO TITLE "I Need A Man" PERFORMER "Francis Lai" INDEX 01 00:00:00FILE "07 - Francis Lai - Melissa.wav" WAVE TRACK 07 AUDIO TITLE "Melissa" PERFORMER "Francis Lai" INDEX 01 00:00:00FILE "08 - Francis Lai - La Campagne.wav" WAVE TRACK 08 AUDIO TITLE "La Campagne" PERFORMER "Francis Lai" INDEX 01 00:00:00FILE "09 - Francis Lai - Scene D'Amour.wav" WAVE TRACK 09 AUDIO TITLE "Scene D'Amour" PERFORMER "Francis Lai" INDEX 01 00:00:00FILE "10 - Francis Lai - Rainbow.wav" WAVE TRACK 10 AUDIO TITLE "Rainbow" PERFORMER "Francis Lai" INDEX 01 00:00:00FILE "11 - Francis Lai - Bilitis - Generique De Fin.wav" WAVE TRACK 11 AUDIO TITLE "Bilitis - Generique De Fin" PERFORMER "Francis Lai" INDEX 01 00:00:00
[teatrix.ru].t12801.torrent 
Торрент: Зарегистрирован [ 2016-01-14 04:25 ] · 350D09D1D7D2C230D050A2187E016F2D58ADD33A

Скачать .torrent

Скачать

11 KB

Статус: проверено
Скачан: 3 раз
Размер: 245 MB
terms.php



Быстрый ответ

Имя:

      
Для отправки сообщений необходимо включить JavaScript
Показать сообщения:    

Текущее время: 07-Дек 00:54

Часовой пояс: UTC + 3


Вы можете начинать темы
Вы можете отвечать на сообщения
Вы не можете редактировать свои сообщения
Вы не можете удалять свои сообщения
Вы не можете голосовать в опросах
Вы не можете прикреплять файлы к сообщениям
Вы можете скачивать файлы