Кардиограмма / Kardiogramma (Дарежан Омирбаев / Darezhan Omirbayev) [1995, Казахстан, драма, DVDRip]


Статистика раздачи [Обновить пиров]
Размер:  742 MB   |    Зарегистрирован:  10 месяцев 26 дней   |    Скачан:  2 раза
Сидов:  1  [  0 KB/s  ]   Подробная статистика пиров
 
   
 
 
 

[Цитировать]

Кардиограмма / Kardiogramma
Страна: Казахстан
Жанр: драма
Год выпуска: 1995
Продолжительность: 01:16:23
Перевод: Не требуется
Cубтитры: нет

Режиссер: Дарежан Омирбаев / Darezhan Omirbayev
В ролях: Бауржан Ахметов, Жасулан Асауов, Асиль Бадаев, Алмас Бекгуляев, Евгений Бондаренко, Азамат Чанков, Виктор Черемисин, Гульнара Дусматова, Суинбай Еркожаев, Олег Гричов
Описание: У чабанского сына Жасулана больное сердце. Мать привозит его в санаторий, находящийся в горах возле столицы Казахстана, и оставляет там на целый месяц. Драма провинциального мальчика усугубляется тем, что он не владеет русским языком, в то время как окружающие его городские дети и взрослые не говорят по-казахски.

Качество видео: DVDRip
Формат видео: AVI
Видео: 656x400 (1.64:1), 25 fps, XviD build 73 ~1156 kbps avg, 0.18 bit/pixel
Аудио: 48 kHz, AC3 Dolby Digital, 2/0 (L,R) ch, ~192 kbps

MediaInfo

Общее
Полное имя : H:\Кардиограмма.1995.dvdrip_[745]_[teko].avi
Формат : AVI
Формат/Информация : Audio Video Interleave
Размер файла : 742 Мбайт
Продолжительность : 1 ч. 16 м.
Общий поток : 1359 Кбит/сек
Программа кодирования : VirtualDubMod 1.5.10.3 | www.virtualdub-fr.org || (build 2550/release)
Библиотека кодирования : VirtualDubMod build 2550/release
Видео
Идентификатор : 0
Формат : MPEG-4 Visual
Профиль формата : Advanced Simple@L5
Параметр BVOP формата : 2
Параметр QPel формата : Нет
Параметр GMC формата : Без точки перехода
Параметр матрицы формата : Выборочная
Идентификатор кодека : XVID
Идентификатор кодека/Подсказка : XviD
Продолжительность : 1 ч. 16 м.
Битрейт : 1157 Кбит/сек
Ширина : 656 пикселей
Высота : 400 пикселей
Соотношение сторон : 16:10
Частота кадров : 25,000 кадров/сек
Цветовое пространство : YUV
Субдискретизация насыщенности : 4:2:0
Битовая глубина : 8 бит
Тип развёртки : Прогрессивная
Метод сжатия : С потерями
Бит/(Пиксели*Кадры) : 0.176
Размер потока : 632 Мбайт (85%)
Библиотека кодирования : XviD 73
Аудио
Идентификатор : 1
Формат : AC-3
Формат/Информация : Audio Coding 3
Профиль формата : Dolby Digital
Расширение режима : CM (complete main)
Параметр Endianness формата : Big
Идентификатор кодека : 2000
Продолжительность : 1 ч. 16 м.
Вид битрейта : Постоянный
Битрейт : 192 Кбит/сек
Каналы : 2 канала
Расположение каналов : Front: L R
Частота : 48,0 КГц
Битовая глубина : 16 бит
Метод сжатия : С потерями
Размер потока : 105 Мбайт (14%)
Выравнивание : Разделение по промежуткам
Продолжительность промежутка : 40 мс. (1,00 видеокадр)
Время предзагрузки промежутка : 500 мс.

Скриншоты

[teatrix.ru].t12803.torrent 
Торрент: Зарегистрирован [ 2016-01-14 13:05 ] · B6DEFD984CBAB1AEF8F810796644FA85052AE828

Скачать .torrent

Скачать

15 KB

Статус: проверено
Скачан: 2 раз
Размер: 742 MB
terms.php



Быстрый ответ

Имя:

      
Для отправки сообщений необходимо включить JavaScript
Показать сообщения:    

Текущее время: 09-Дек 18:25

Часовой пояс: UTC + 3


Вы можете начинать темы
Вы можете отвечать на сообщения
Вы не можете редактировать свои сообщения
Вы не можете удалять свои сообщения
Вы не можете голосовать в опросах
Вы не можете прикреплять файлы к сообщениям
Вы можете скачивать файлы