(Classical / Symphony) Anton Bruckner - Symphonie Nr. 7 / Антон Брукнер - Симфония № 7 (Wiener Philharmoniker, Carlo Maria Giulini / Карло Мария Джулини, 1986) - 1987, FLAC (tracks+.cue) lossless


 

[Цитировать]

Anton Bruckner | Антон Брукнер
(1824–1896)



Symphonie Nr. 7 E-dur | Симфония № 7 ми мажор


Wiener Philharmoniker
Carlo Maria Giulini conductor


Жанр: Classical / Symphony
Дата и место записи: Wien, Musikverein, Großer Sall, 6/1986
Формат записи: DDD, Stereo
Год издания диска: 1987
Издатель (лейбл): Deutsche Grammophon
Номер по каталогу: 419 627-2
Аудиокодек: FLAC
Тип рипа: tracks+.cue
Битрейт аудио: lossless
Продолжительность: 1:07:52
Наличие сканов в содержимом раздачи: нет
Источник: What.CD
Релизёр: Spatterjay


Tracklist / Треклист
Symphonie Nr. 7 E-dur - 1:07:52
I. Allegro moderato - 20:30
  • II. Adagio: Sehr feierlich und sehr langsam - 24:14
  • III. Scherzo: Sehr schnell - 10:37
  • IV: Finale: Bewegt, doch nicht schnell - 12:31

    -

    EAC log / Отчёт EAC

    Exact Audio Copy V1.0 beta 3 from 29. August 2011
    EAC extraction logfile from 22. July 2014, 7:58
    Anton Bruckner / Symphonie No.7
    Used drive : MATSHITABD-MLT UJ240ES Adapter: 2 ID: 0
    Read mode : SecureUtilize accurate stream : YesDefeat audio cache : YesMake use of C2 pointers : No
    Read offset correction : 103Overread into Lead-In and Lead-Out : NoFill up missing offset samples with silence : YesDelete leading and trailing silent blocks : NoNull samples used in CRC calculations : YesUsed interface : Native Win32 interface for Win NT & 2000Gap handling : Appended to previous track
    Used output format : User Defined EncoderSelected bitrate : 1024 kBit/sQuality : HighAdd ID3 tag : NoCommand line compressor : D:\Exact Audio Copy\FLAC\FLAC.EXEAdditional command line options : -8 -V -T "ARTIST=%artist%" -T "TITLE=%title%" -T "ALBUM=%albumtitle%" -T "DATE=%year%" -T "TRACKNUMBER=%tracknr%" -T "GENRE=%genre%" -T "PERFORMER=%albuminterpret%" -T "COMPOSER=%composer%" %haslyrics%--tag-from-file=LYRICS="%lyricsfile%"%haslyrics% -T "ALBUMARTIST=%albumartist%" -T "DISCNUMBER=%cdnumber%" -T "TOTALDISCS=%totalcds%" -T "TOTALTRACKS=%numtracks%" -T "COMMENT=%comment%" %source% -o %dest%
    TOC of the extracted CD
    Track | Start | Length | Start sector | End sector --------------------------------------------------------- 1 | 0:00.33 | 20:30.10 | 33 | 92292 2 | 20:30.43 | 24:13.65 | 92293 | 201332 3 | 44:44.33 | 10:37.00 | 201333 | 249107 4 | 55:21.33 | 12:31.25 | 249108 | 305457
    Track 1
    Filename D:\Musique\Anton Bruckner\Symphonie No.7\01.- I. Allegro moderato.wav
    Pre-gap length 0:00:02.33
    Peak level 93.1 % Extraction speed 3.4 X Track quality 100.0 % Test CRC 06ADD129 Copy CRC 06ADD129 Accurately ripped (confidence 21) [D91C1FD2] (AR v2) Copy OK
    Track 2
    Filename D:\Musique\Anton Bruckner\Symphonie No.7\02.- II. Adagio-Sehr feierlich und sehr langsam.wav
    Pre-gap length 0:00:07.55
    Peak level 93.6 % Extraction speed 4.6 X Track quality 100.0 % Test CRC 2676EC0E Copy CRC 2676EC0E Accurately ripped (confidence 22) [EE307FCB] (AR v2) Copy OK
    Track 3
    Filename D:\Musique\Anton Bruckner\Symphonie No.7\03.- III. Scherzo-Sehr schnell.wav
    Pre-gap length 0:00:05.50
    Peak level 90.8 % Extraction speed 5.1 X Track quality 100.0 % Test CRC 2B1E7C6B Copy CRC 2B1E7C6B Accurately ripped (confidence 20) [8F6F3D5E] (AR v2) Copy OK
    Track 4
    Filename D:\Musique\Anton Bruckner\Symphonie No.7\04.- IV. Finale-Bewegt, doch nicht zu schnell.wav
    Pre-gap length 0:00:02.25
    Peak level 90.6 % Extraction speed 5.3 X Track quality 99.9 % Test CRC C9B3F51D Copy CRC C9B3F51D Accurately ripped (confidence 23) [CD62296B] (AR v2) Copy OK
    All tracks accurately ripped
    No errors occurred
    End of status report
    ==== Log checksum 2BEFF9CBA5C9CA91CD46A4A5EB4F194AF55AA7E94D7856C4F61189238EDCC3A8 ====

    auCDtect Task Manager log / Отчёт auCDtect Task Manager

    -----------------------
    DON'T MODIFY THIS FILE
    -----------------------
    PERFORMER: auCDtect Task Manager, ver. 1.5.1RC3 build 1.5.1.4Copyright (c) 2008-2010 y-soft. All rights reserved
    ANALYZER: auCDtect: CD records authenticity detector, version 0.8.2Copyright (c) 2004 Oleg Berngardt. All rights reserved.Copyright (c) 2004 Alexander Djourik. All rights reserved.
    FILE: 03 - Symphonie Nr. 7 E-dur - III. Scherzo. Sehr schnell.flac Size: 46221390 Hash: 5431619F0DEAC7EC971BAA6AFCD4E61F Accuracy: -m0 Conclusion: CDDA 100% Signature: 20C69E6802FED197CEE66BE46A70DC33EAD96612FILE: 02 - Symphonie Nr. 7 E-dur - II. Adagio. Sehr feierlich und sehr langsam.flac Size: 92621607 Hash: 08C1343149199E0C24473D8181378FF4 Accuracy: -m0 Conclusion: CDDA 100% Signature: A2029800B2EFF623E623EBE040F1AF93067DA562FILE: 01 - Symphonie Nr. 7 E-dur - I. Allegro moderato.flac Size: 80561471 Hash: 008614EB923CA660D623949ED14A4160 Accuracy: -m0 Conclusion: CDDA 100% Signature: 6D086A4613089B2DC39913B7E7DAB607F37DFAB7FILE: 04 - Symphonie Nr. 7 E-dur - IV. Finale. Bewegt, doch nicht schnell.flac Size: 54944367 Hash: 9E17C6ED684567A8323D4C57EC708981 Accuracy: -m0 Conclusion: CDDA 100% Signature: 6CB8AE5AB8B9C97DF0988AA522067D9B8140503A

    CUETools log / Отчёт CUETools

    [CUETools log; Date: 14.01.2016 11:23:17; Version: 2.1.4]Pregap length 00:00:33.[AccurateRip ID: 000cf161-00328ad4-2b0fe804] found.Track [ CRC | V2 ] Status 01 [68f4817c|d91c1fd2] (18+29/53) Accurately ripped 02 [9188c315|ee307fcb] (16+30/52) Accurately ripped 03 [c0e5106c|8f6f3d5e] (17+28/51) Accurately ripped 04 [e1f343b5|cd62296b] (17+31/51) Accurately rippedOffsetted by -179: 01 [01791b96] (04/53) Accurately ripped 02 [dcce84f0] (04/52) Accurately ripped 03 [ffa10d80] (04/51) Accurately ripped 04 [fc04270f] (03/51) Accurately ripped
    Track Peak [ CRC32 ] [W/O NULL] [ LOG ] -- 93,6 [19119582] [1C7E6EF7] 01 93,1 [06ADD129] [78D0946B] CRC32 02 93,6 [2676EC0E] [C8EB2ED7] CRC32 03 90,8 [2B1E7C6B] [C0DFA539] CRC32 04 90,6 [C9B3F51D] [0B71DA20] CRC32

    CUE sheet

    TITLE "Anton Bruckner: Symphonie Nr. 7"PERFORMER "Carlo Maria Giulini"REM GENRE ClassicalREM DISCID 2B0FE804REM COMMENT "ExactAudioCopy v1.0b3"CATALOG 0028941962720FILE "01 - Symphonie Nr. 7 E-dur - I. Allegro moderato.flac" WAVE TRACK 01 AUDIO TITLE "Symphonie Nr. 7 E-dur: I. Allegro moderato" PERFORMER "Wiener Philharmoniker. Carlo Maria Giulini, conductor" REM DATE 1986 PREGAP 00:00:33 INDEX 01 00:00:00 TRACK 02 AUDIO TITLE "Symphonie Nr. 7 E-dur: II. Adagio: Sehr feierlich und sehr langsam" PERFORMER "Wiener Philharmoniker. Carlo Maria Giulini, conductor" REM DATE 1986 INDEX 00 20:22:30FILE "02 - Symphonie Nr. 7 E-dur - II. Adagio. Sehr feierlich und sehr langsam.flac" WAVE INDEX 01 00:00:00 TRACK 03 AUDIO TITLE "Symphonie Nr. 7 E-dur: III. Scherzo: Sehr schnell" PERFORMER "Wiener Philharmoniker. Carlo Maria Giulini, conductor" REM DATE 1986 INDEX 00 24:08:15FILE "03 - Symphonie Nr. 7 E-dur - III. Scherzo. Sehr schnell.flac" WAVE INDEX 01 00:00:00 TRACK 04 AUDIO TITLE "Symphonie Nr. 7 E-dur: IV: Finale: Bewegt, doch nicht schnell" PERFORMER "Wiener Philharmoniker. Carlo Maria Giulini, conductor" REM DATE 1986 INDEX 00 10:34:50FILE "04 - Symphonie Nr. 7 E-dur - IV. Finale. Bewegt, doch nicht schnell.flac" WAVE INDEX 01 00:00:00



  • Показать сообщения:    

    Текущее время: 03-Дек 20:41

    Часовой пояс: UTC + 3


    Вы не можете начинать темы
    Вы не можете отвечать на сообщения
    Вы не можете редактировать свои сообщения
    Вы не можете удалять свои сообщения
    Вы не можете голосовать в опросах
    Вы не можете прикреплять файлы к сообщениям
    Вы не можете скачивать файлы