Шесть раз / Shesh Peamim / Six Acts (Джонатан Гарфинкел / Johnathan Gurfinkel) [2012, Израиль, драма, WEB-DLRip] MVO


Статистика раздачи [Обновить пиров]
Размер:  1.46 GB   |    Зарегистрирован:  10 месяцев 19 дней   |    Скачан:  0 раз

Полного источника не было: 7 месяцев

 
   
 
 
 

[Цитировать]

Шесть раз / Shesh Peamim / Six Acts
Страна: Израиль
Жанр: драма
Год выпуска: 2012
Продолжительность: 01:39:51
Перевод: Профессиональный (многоголосый закадровый)
Cубтитры: нет
Режиссер: Джонатан Гарфинкел / Johnathan Gurfinkel
В ролях: Сиван Леви, Эвитар Мор, Рой Ник, Нив Зилберберг, Таль Грушка, Эран Иванир, Ронит Юдкевич, Мейрав Грубер, Асаф Герц, Ницан Левратовский
Описание: Гили переходит в новую школу. Она готова на многое, чтобы привлечь внимание к себе. В течение пары дней она знакомится с несколькими парнями. Их встречи приобретают все более сексуальный характер, каждый раз сдвигая границы дозволенного. Мальчики жаждут получить близость с Гили, а она в это время просто наслаждается вниманием к себе. Но в какой-то момент внутри девушки растет беспокойство: все происходит совсем не так, как она планировала...
Сан-Себастьян, 2012 год
Победитель: Награда Otra Mirada испанского телеканала TVE

Сэмпл: http://multi-up.com/1059199
Качество видео: WEB-DLRip
Формат видео: AVI
Видео: XviD, 720х400, 1890 кбит/с, 24 fps, 0.273 b/px
Аудио: AC3, 192 кбит/с, 2 ch, 48 КГц

MediaInfo

Общее
Полное имя : D:\Shesh.Peamim_2012.WEB-DLRip.avi
Формат : AVI
Формат/Информация : Audio Video Interleave
Размер файла : 1,46 Гбайт
Продолжительность : 1 ч. 39 м.
Общий поток : 2091 Кбит/сек
Программа кодирования : VirtualDubMod 1.5.10.2 (build 2540/release)
Библиотека кодирования : VirtualDubMod build 2540/release
Видео
Идентификатор : 0
Формат : MPEG-4 Visual
Профиль формата : Advanced Simple@L5
Параметр BVOP формата : 2
Параметр QPel формата : Нет
Параметр GMC формата : Без точки перехода
Параметр матрицы формата : Default (MPEG)
Идентификатор кодека : XVID
Идентификатор кодека/Подсказка : XviD
Продолжительность : 1 ч. 39 м.
Битрейт : 1890 Кбит/сек
Ширина : 720 пикселей
Высота : 400 пикселей
Соотношение сторон : 16:9
Частота кадров : 24,000 кадра/сек
Цветовое пространство : YUV
Субдискретизация насыщенности : 4:2:0
Битовая глубина : 8 бит
Тип развёртки : Прогрессивная
Метод сжатия : С потерями
Бит/(Пиксели*Кадры) : 0.273
Размер потока : 1,32 Гбайт (90%)
Библиотека кодирования : XviD 1.2.1 (UTC 2008-12-04)
Аудио
Идентификатор : 1
Формат : AC-3
Формат/Информация : Audio Coding 3
Расширение режима : CM (complete main)
Параметр Endianness формата : Big
Идентификатор кодека : 2000
Продолжительность : 1 ч. 39 м.
Вид битрейта : Постоянный
Битрейт : 192 Кбит/сек
Каналы : 2 канала
Расположение каналов : Front: L R
Частота : 48,0 КГц
Метод сжатия : С потерями
Размер потока : 137 Мбайт (9%)
Выравнивание : Разделение по промежуткам
Продолжительность промежутка : 42 мс. (1,00 видеокадр)
Время предзагрузки промежутка : 500 мс.

Скриншот c названием фильма

[teatrix.ru].t12808.torrent 
Торрент: Зарегистрирован [ 2016-01-14 17:30 ] · B8A7DCB79BF1D691C542C06B62E9DE361AD1855B

Скачать .torrent

Скачать

15 KB

Статус: проверено
Скачан: 0 раз
Размер: 1.46 GB
terms.php



Быстрый ответ

Имя:

      
Для отправки сообщений необходимо включить JavaScript
Показать сообщения:    

Текущее время: 03-Дек 09:50

Часовой пояс: UTC + 3


Вы можете начинать темы
Вы можете отвечать на сообщения
Вы не можете редактировать свои сообщения
Вы не можете удалять свои сообщения
Вы не можете голосовать в опросах
Вы не можете прикреплять файлы к сообщениям
Вы можете скачивать файлы