Там, где мечтают зелёные муравьи / Wo die grünen Ameisen träumen (Вернер Херцог / Werner Herzog) [1984, Германия, Австралия, этнографическая драма, DVDRip] AVO (Алексеев)


Статистика раздачи [Обновить пиров]
Размер:  1.46 GB   |    Зарегистрирован:  10 месяцев 21 день   |    Скачан:  0 раз

Полного источника не было: Никогда

Личеров:  3  [  0 KB/s  ]   Подробная статистика пиров
 
   
 
 
 

[Цитировать]

Там, где мечтают зелёные муравьи / Wo die grünen Ameisen träumen
Год выпуска: 1984
Страна: Германия, Австралия
Жанр: этнографическая драма
Продолжительность: 01:36:34.080 (144852 frames)
Перевод: Авторский (одноголосый закадровый) А. Алексеев
Оригинальная аудиодорожка: нет
Русские субтитры: нет
Режиссер: Вернер Херцог / Werner Herzog
В ролях: Брюс Спенс (Bruce Spence), Ванжук Марика (Wandjuk Marika), Рой Марика (Roy Marika), Рэй Барретт (Ray Barrett), Норман Кэй (Norman Kaye), Ник Латурис (Nick Lathouris)
Описание: Обращение Вернера Херцога к проблематике австралийской глубинки и попытки коммуникаций между местными аборигенами и пришедшими чужаками с Запада. Во время разведывательной геологической экспедиции по пустыням Австралии, представители британской компании внезапно сталкиваются со стоящими прямо перед бульдозером загорелыми парнями из местных племен, которые с серьезным выражением на лице уверяют, что никакой активности здесь проявлять не стоит, ибо тут спят зеленые муравьи и если разбудить их, то наступит конец света или что-то подобное тому. Британцы пытаются как-то мирно и деликатно объяснить ситуацию с одной стороны, и понять, чего хотят аборигены, с другой. Посредником на переговорах назначают совершенно обычного парня Лэнса (Брюс Спенс), который постепенно начинает проникаться философией местного племени, осознавая, насколько грубыми и жесткими являются попытки искать компромисс со стороны приезжих представителей промышленности.
Качество: DVDRip
Формат: AVI
Видео кодек: XviD
Аудио кодек: АС3
Видео: 704x384 (1.83:1), 25 fps, XviD build 73 ~1956 kbps avg, 0.29 bit/pixel
Аудио: 48 kHz, AC3 Dolby Digital, 2/0 (L,R) ch, ~192.00 kbps avg

Скриншоты

Медиаинфо

F:\004 Мои раздачи\Там где мечтают зеленые муравьи 1,46\tam_gde_mechtaut_zelenye_muravi_1.46_[torrents.ru]_by_bm11.avi
General
Complete name : F:\004 Мои раздачи\Там где мечтают зеленые муравьи 1,46\tam_gde_mechtaut_zelenye_muravi_1.46_[torrents.ru]_by_bm11.avi
Format : AVI
Format/Info : Audio Video Interleave
File size : 1.46 GiB
Duration : 1h 36mn
Overall bit rate : 2 158 Kbps
Director : bm11
Writing application : VirtualDubMod 1.5.10.3 | www.virtualdub-fr.org || (build 2550/release)
Video
Format : MPEG-4 Visual
Format profile : Streaming Video@L1
Format settings, BVOP : Yes
Format settings, QPel : No
Format settings, GMC : No warppoints
Format settings, Matrix : Custom
Codec ID : XVID
Codec ID/Hint : XviD
Duration : 1h 36mn
Bit rate : 1 956 Kbps
Width : 704 pixels
Height : 384 pixels
Display aspect ratio : 16/9
Frame rate : 25.000 fps
Resolution : 24 bits
Colorimetry : 4:2:0
Scan type : Progressive
Bits/(Pixel*Frame) : 0.289
Stream size : 1.32 GiB (91%)
Writing library : XviD 73
Audio
Format : AC-3
Format/Info : Audio Coding 3
Codec ID : 2000
Duration : 1h 36mn
Bit rate mode : Constant
Bit rate : 192 Kbps
Channel(s) : 2 channels
Channel positions : L R
Sampling rate : 48.0 KHz
Stream size : 132 MiB (9%)
Alignment : Split accross interleaves
Interleave, duration : 40 ms (1.00 video frame)
Interleave, preload duration : 500 ms
[teatrix.ru].t12811.torrent 
Торрент: Зарегистрирован [ 2016-01-14 21:55 ] · 8CDB6A4E51CB802264EBAC6805283C5B82430315

Скачать .torrent

Скачать

15 KB

Статус: проверено
Скачан: 0 раз
Размер: 1.46 GB
terms.php



Быстрый ответ

Имя:

      
Для отправки сообщений необходимо включить JavaScript
Показать сообщения:    

Текущее время: 05-Дек 19:33

Часовой пояс: UTC + 3


Вы можете начинать темы
Вы можете отвечать на сообщения
Вы не можете редактировать свои сообщения
Вы не можете удалять свои сообщения
Вы не можете голосовать в опросах
Вы не можете прикреплять файлы к сообщениям
Вы можете скачивать файлы