Цзюй Доу / Джу Доу / Ju Dou (Фенльян Янг / Fengliang Yang, Чжан Имоу / Zhang Yimou) [1990, Япония, Китай, драма, BDRip 1080p] DVO (СВ Дубль) + AVO (Сергей Кузнецов) + Original Chi


 

[Цитировать]

Цзюй Доу / Джу Доу / Ju Dou
Страна: Япония, Китай
Студия: China Film Co-Production Corporation, China Film Release Import and Export Company, Cineplex Odeon Films
Жанр: драма
Год выпуска: 1990
Продолжительность: 01:35:23
Перевод 1: Профессиональный (двухголосый закадровый) СВ Дубль
Перевод 2: Авторский (одноголосый закадровый) Сергей Кузнецов
Cубтитры: нет
Оригинальная аудиодорожка: китайский
Режиссер: Фенльян Янг / Fengliang Yang, Чжан Имоу / Zhang Yimou
В ролях: Гун Ли, Баотянь Ли, Ма Чонг, Чжицзюн Конг, Джиа Джин, Ли Вэй, Чжан И и др.
Описание: События фильма охватывают десятилетний период с 1920 по 1930 год, не покидая пределов глухой китайской деревни. Пожилой хозяин небольшой красильной лавки приводит в дом молодую жену Цзюйдоу, которая должна родить ему сына, поскольку две предыдущие супруги не справились с этой задачей и были буквально сжиты со света. Цзюйдоу тоже не может забеременеть и в наказание подвергается систематическим побоям....
Фильм номинировался на Оскара как лучший фильм на иностранном языке и Золотую пальмовую ветвь в Каннах, был запрещен к показу в Китае в течение нескольких лет.
II Сэмпл II IMDB II
Релиз группа:

Доп. информация:
Видеоряд взят с раздачи Ju.Dou.1990.BluRay.1080p.x264-HDChina
За перевод СВ Дубль спасибо G00ba
Тип релиза: BDRip 1080p
Контейнер: MKV
Видео: AVC / 1442x1080 / 4:3 / 23.976fps / Bit rate 13500 / High@L4.1
Аудио 1: AC3 / 48.0 KHz / 2ch. / 192kbps / rus / DVO / СВ Дубль
Аудио 2: AC3 / 48.0 KHz / 2ch. / 192kbps / rus / AVO / Сергей Кузнецов
Аудио 3: Flac / 48.0 KHz / 2ch. / 559kbps / 24bit / jap

MediaInfo

Общее
Уникальный идентификатор : 190684012635378668088973945485242576006 (0x8F7467AD1979CBB0AAC785DADC5AAC86)
Полное имя : G:\!!!_torrent\Ju.Dou.1990.BDRip.1080p_by_vedigo.mkv
Формат : Matroska
Версия формата : Version 4 / Version 2
Размер файла : 9,62 Гбайт
Продолжительность : 1 ч. 35 м.
Режим общего битрейта : Переменный
Общий поток : 14,4 Мбит/сек
Название фильма : Ju.Dou.1990.BDRip.1080p_by_vedigo
Дата кодирования : UTC 2015-12-21 00:20:33
Программа кодирования : mkvmerge v8.6.1 ('Flying') 64bit
Библиотека кодирования : libebml v1.3.3 + libmatroska v1.4.4
Видео
Идентификатор : 1
Формат : AVC
Формат/Информация : Advanced Video Codec
Профиль формата : High@L4.1
Параметр CABAC формата : Да
Параметр ReFrames формата : 5 кадров
Идентификатор кодека : V_MPEG4/ISO/AVC
Продолжительность : 1 ч. 35 м.
Битрейт : 13,5 Мбит/сек
Ширина : 1442 пикселя
Высота : 1080 пикселей
Соотношение сторон : 4:3
Режим частоты кадров : Постоянный
Частота кадров : 23,976 (24000/1001) кадра/сек
Цветовое пространство : YUV
Субдискретизация насыщенности : 4:2:0
Битовая глубина : 8 бит
Тип развёртки : Прогрессивная
Бит/(Пиксели*Кадры) : 0.362
Размер потока : 8,99 Гбайт (93%)
Заголовок : Ju.Dou.1990.BDRip.1080p_by_vedigo
Библиотека кодирования : x264 core 148 r2638kMod 7599210
Настройки программы : cabac=1 / ref=5 / deblock=1:-3:-3 / analyse=0x3:0x113 / me=umh / subme=11 / psy=1 / fade_compensate=0.00 / psy_rd=1.00:0.10 / mixed_ref=1 / me_range=64 / chroma_me=1 / trellis=2 / 8x8dct=1 / cqm=0 / deadzone=21,11 / fast_pskip=0 / chroma_qp_offset=-3 / threads=34 / lookahead_threads=2 / sliced_threads=0 / nr=0 / decimate=0 / interlaced=0 / bluray_compat=0 / constrained_intra=0 / fgo=0 / bframes=8 / b_pyramid=2 / b_adapt=2 / b_bias=0 / direct=3 / weightb=1 / open_gop=0 / weightp=2 / keyint=360 / keyint_min=2 / scenecut=40 / intra_refresh=0 / rc_lookahead=40 / rc=2pass / mbtree=0 / bitrate=13500 / ratetol=1.0 / qcomp=0.70 / qpmin=0 / qpmax=69 / qpstep=4 / cplxblur=20.0 / qblur=0.5 / vbv_maxrate=50000 / vbv_bufsize=45000 / nal_hrd=none / filler=0 / ip_ratio=1.23 / pb_ratio=1.15 / aq=3:0.80
Default : Да
Forced : Нет
Аудио #1
Идентификатор : 2
Формат : AC-3
Формат/Информация : Audio Coding 3
Расширение режима : CM (complete main)
Параметр Endianness формата : Big
Идентификатор кодека : A_AC3
Продолжительность : 1 ч. 35 м.
Вид битрейта : Постоянный
Битрейт : 192 Кбит/сек
Каналы : 2 канала
Расположение каналов : Front: L R
Частота : 48,0 КГц
Частота кадров : 31,250 кадров/сек (1536 spf)
Метод сжатия : С потерями
Размер потока : 131 Мбайт (1%)
Заголовок : DVO @ СВ Дубль
Язык : Russian
Default : Да
Forced : Нет
Аудио #2
Идентификатор : 3
Формат : AC-3
Формат/Информация : Audio Coding 3
Расширение режима : CM (complete main)
Параметр Endianness формата : Big
Идентификатор кодека : A_AC3
Продолжительность : 1 ч. 35 м.
Вид битрейта : Постоянный
Битрейт : 192 Кбит/сек
Каналы : 2 канала
Расположение каналов : Front: L R
Частота : 48,0 КГц
Частота кадров : 31,250 кадров/сек (1536 spf)
Метод сжатия : С потерями
Размер потока : 131 Мбайт (1%)
Заголовок : AVO @ Сергей Кузнецов
Язык : Russian
Default : Нет
Forced : Нет
Аудио #3
Идентификатор : 4
Формат : FLAC
Формат/Информация : Free Lossless Audio Codec
Идентификатор кодека : A_FLAC
Продолжительность : 1 ч. 35 м.
Вид битрейта : Переменный
Битрейт : 559 Кбит/сек
Каналы : 2 канала
Расположение каналов : Front: L R
Частота : 48,0 КГц
Частота кадров : 11,719 кадров/сек (4096 spf)
Битовая глубина : 24 бит
Размер потока : 382 Мбайт (4%)
Заголовок : original
Библиотека кодирования : libFLAC 20080709 (UTC 2008-07-09)
Язык : Chinese
Default : Нет
Forced : Нет
Меню
00:00:00.000 : en:Chapter 1
00:04:45.118 : en:Chapter 2
00:12:30.583 : en:Chapter 3
00:17:46.065 : en:Chapter 4
00:25:34.366 : en:Chapter 5
00:28:42.554 : en:Chapter 6
00:31:08.283 : en:Chapter 7
00:34:11.257 : en:Chapter 8
00:37:50.268 : en:Chapter 9
00:39:57.770 : en:Chapter 10
00:44:14.526 : en:Chapter 11
00:51:09.274 : en:Chapter 12
00:58:16.451 : en:Chapter 13
01:05:54.033 : en:Chapter 14
01:10:57.544 : en:Chapter 15
01:16:08.855 : en:Chapter 16
01:20:36.998 : en:Chapter 17
01:25:41.052 : en:Chapter 18

Скриншоты


x264 info

x264 [info]: frame I:678 Avg QP:16.34 size:231848
x264 [info]: frame P:29003 Avg QP:17.84 size:103923
x264 [info]: frame B:107552 Avg QP:18.66 size: 60313
x264 [info]: consecutive B-frames: 2.5% 2.0% 7.0% 11.0% 16.0% 48.7% 7.9% 2.9% 2.0%



Показать сообщения:    

Текущее время: 05-Дек 03:30

Часовой пояс: UTC + 3


Вы не можете начинать темы
Вы не можете отвечать на сообщения
Вы не можете редактировать свои сообщения
Вы не можете удалять свои сообщения
Вы не можете голосовать в опросах
Вы не можете прикреплять файлы к сообщениям
Вы не можете скачивать файлы