Затухающий огонек / Le feu follet (Луи Маль / Louis Malle) [1963, Франция, драма, BDRemux 1080p] 2x MVO + Sub (Rus, Eng) + Original Fre


 

[Цитировать]

Затухающий огонек / Le feu follet
Страна: Франция
Жанр: драма
Год выпуска: 1963
Продолжительность: 01:48:00
Перевод: Профессиональный (многоголосый закадровый) Cinema Prestige
Перевод: Профессиональный (многоголосый закадровый)
Cубтитры: русские (2 вида), английские
Оригинальная аудиодорожка: французский-Режиссер: Луи Маль / Louis Malle
В ролях: Морис Роне, Лена Скерла, Ивонн Клеш, Жан-Поль Мулино, Мона Дол, Урсула Кюблер, Рене Дюпюи, Бернар Ноэль, Александра Стюарт, Анри Серр, Юбер Дешам, Пьер Монкорбье, Бернар Тифен, Ален Мотте, Роман Бутей, Жак Сери, Тони Таффен, Жанна Моро
Описание: По одноименному роману Дриё Ля Рошеля.
Экзистенциальная драма о последних днях жизни человека, решившего покончить жизнь самоубийством. Герой не находит ни одной зацепки в окружающем мире, которая могла бы остановить его намерения...
IMDb || КиноПоиск-Тип релиза: BDRemux 1080p
Контейнер: MKV
Видео: MPEG-4 AVC Video, 1920x1080 at 24 fps, 29984 Mbps
Аудио#1: Russian: 48 kHz, AC3, 2.0 ch, 192 kbps
Аудио#2: Russian: 48 kHz, AC3, 2.0 ch, 192 kbps
Аудио#3: French: 48 kHz, FLAC, 2.0 ch, 661 kbps
Формат субтитров: softsub (SRT)
Сэмпл

Дополнительно

За оригинальный диск большое спасибо shakill.
За перевод №2 спасибо Hujupkin. В дорожке заменена вставка любительского перевода (~ 40 сек. на начальных титрах) на Cinema Prestige.

MediaInfo

General
Unique ID : 243304442295016500838250676693053205290 (0xB70ABB297D808612A16F7F3874BFEB2A)
Complete name : Le feu follet.1963.BDRemux.rutracker.mkv
Format : Matroska
Format version : Version 2
File size : 23.4 GiB
Duration : 1h 48mn
Overall bit rate mode : Variable
Overall bit rate : 31.0 Mbps
Movie name : Release for RuTracker
Writing application : mkvmerge v5.0.1 ('Es ist Sommer') built on Nov 6 2011 16:23:40
Writing library : libebml v1.2.2 + libmatroska v1.3.0
Video
ID : 1
Format : AVC
Format/Info : Advanced Video Codec
Format profile : High@L4.1
Format settings, CABAC : Yes
Format settings, ReFrames : 4 frames
Format settings, GOP : M=3, N=24
Codec ID : V_MPEG4/ISO/AVC
Duration : 1h 48mn
Bit rate mode : Variable
Maximum bit rate : 35.0 Mbps
Width : 1 920 pixels
Height : 1 080 pixels
Display aspect ratio : 16:9
Frame rate mode : Constant
Frame rate : 24.000 fps
Standard : NTSC
Color space : YUV
Chroma subsampling : 4:2:0
Bit depth : 8 bits
Scan type : Progressive
Title : Le feu follet.1963.BDRemux.rutracker
Language : French
Default : Yes
Forced : No
Color primaries : BT.709
Transfer characteristics : BT.709
Matrix coefficients : BT.709
Audio #1
ID : 2
Format : AC-3
Format/Info : Audio Coding 3
Mode extension : CM (complete main)
Format settings, Endianness : Big
Codec ID : A_AC3
Duration : 1h 48mn
Bit rate mode : Constant
Bit rate : 192 Kbps
Channel(s) : 2 channels
Channel positions : Front: L R
Sampling rate : 48.0 KHz
Bit depth : 16 bits
Compression mode : Lossy
Stream size : 148 MiB (1%)
Title : многоголосый закадровый, Cinema Prestige
Language : Russian
Default : Yes
Forced : No
Audio #2
ID : 3
Format : AC-3
Format/Info : Audio Coding 3
Mode extension : CM (complete main)
Format settings, Endianness : Big
Codec ID : A_AC3
Duration : 1h 48mn
Bit rate mode : Constant
Bit rate : 192 Kbps
Channel(s) : 2 channels
Channel positions : Front: L R
Sampling rate : 48.0 KHz
Bit depth : 16 bits
Compression mode : Lossy
Stream size : 148 MiB (1%)
Title : многоголосый закадровый
Language : Russian
Default : No
Forced : No
Audio #3
ID : 4
Format : FLAC
Format/Info : Free Lossless Audio Codec
Codec ID : A_FLAC
Duration : 1h 48mn
Bit rate mode : Variable
Channel(s) : 2 channels
Sampling rate : 48.0 KHz
Bit depth : 24 bits
Writing library : libFLAC 1.2.1 (UTC 2007-09-17)
Language : French
Default : No
Forced : No
Text #1
ID : 5
Format : UTF-8
Codec ID : S_TEXT/UTF8
Codec ID/Info : UTF-8 Plain Text
Title : Cinema Prestige
Language : Russian
Default : No
Forced : No
Text #2
ID : 6
Format : UTF-8
Codec ID : S_TEXT/UTF8
Codec ID/Info : UTF-8 Plain Text
Language : Russian
Default : No
Forced : No
Text #3
ID : 7
Format : UTF-8
Codec ID : S_TEXT/UTF8
Codec ID/Info : UTF-8 Plain Text
Language : English
Default : No
Forced : No
Menu
00:00:00.000 : en:1
00:10:26.416 : en:2
00:15:48.791 : en:3
00:24:15.125 : en:4
00:35:25.833 : en:5
00:43:47.958 : en:6
00:51:22.958 : en:7
01:02:39.208 : en:8
01:11:26.500 : en:9
01:21:49.250 : en:10
01:29:37.375 : en:11
01:40:46.875 : en:12

Скриншоты




Показать сообщения:    

Текущее время: 07-Дек 21:23

Часовой пояс: UTC + 3


Вы не можете начинать темы
Вы не можете отвечать на сообщения
Вы не можете редактировать свои сообщения
Вы не можете удалять свои сообщения
Вы не можете голосовать в опросах
Вы не можете прикреплять файлы к сообщениям
Вы не можете скачивать файлы