Любить, пить и петь / Aimer, boire et chanter (Ален Рене / Alain Resnais) [2014, Франция, драма, мелодрама, комедия, HDRip] VO + Original Fre


 

[Цитировать]

Любить, пить и петь / Aimer, boire et chanter Страна: Франция
Жанр: драма, мелодрама, комедия
Год выпуска: 2014
Продолжительность: 01:48:06
Перевод: Одноголосый закадровый - Lord32x
Cубтитры: нет
Оригинальная аудиодорожка: французская
Режиссер: Ален Рене / Alain Resnais
В ролях: Сабин Азема, Сандрин Киберлэн, Каролин Сиоль, Андре Дюссолье, Ипполит Жирардо, Мишель Вюйермоз, Альба Гайя Крагеде Беллуджи, Жерар Лартиго.
Описание: Великобритания, Йоркшир. Три пары (Катрин и Колин, Тамара и Джек, Моника и Симон) шокированы новостью о том, что их общий товарищ Джордж Райли неизлечимо болен, и ему осталось жить всего несколько месяцев. Пытаясь как-то ему помочь, они пригласили его в свою аматорскую театральную труппу, но репетиции заставили их вспомнить некоторые истории из их прошлого. Когда же Джордж решает провести свой последний отпуск на острове Тенериф, каждая из женщин желает стать его спутницей, и это приводит их мужей в ужас.

Исходник - aimer.boire.et.chanter.2014.french.1080p.bluray.x264-rough с фр. трекера

Качество видео: HDRip
Формат видео: AVI
Видео: 720x304 (2.37:1), 23.976 fps, XviD build 50 ~1528 kbps avg, 0.29 bit/pixel
Аудио 1: 48 kHz, AC3 Dolby Digital, 2/0 (L,R) ch, ~192 kbps - Rus
Аудио 2: 48 kHz, AC3 Dolby Digital, 2/0 (L,R) ch, ~192 kbps - Fra

MediaInfo

General
Complete name : D:\Public\aimer.boire.et.chanter.2014.hdrip.rus-fra.avi
Format : AVI
Format/Info : Audio Video Interleave
File size : 1.46 GiB
Duration : 1h 48mn
Overall bit rate : 1 927 Kbps
Writing application : VirtualDubMod 1.5.10.2 (build 2542/release)
Writing library : VirtualDubMod build 2542/release
Video
ID : 0
Format : MPEG-4 Visual
Format profile : Advanced Simple@L5
Format settings, BVOP : 1
Format settings, QPel : No
Format settings, GMC : No warppoints
Format settings, Matrix : Default (MPEG)
Codec ID : XVID
Codec ID/Hint : XviD
Duration : 1h 48mn
Bit rate : 1 529 Kbps
Width : 720 pixels
Height : 304 pixels
Display aspect ratio : 2.35:1
Frame rate : 23.976 fps
Color space : YUV
Chroma subsampling : 4:2:0
Bit depth : 8 bits
Scan type : Progressive
Compression mode : Lossy
Bits/(Pixel*Frame) : 0.291
Stream size : 1.15 GiB (79%)
Writing library : XviD 1.2.1 (UTC 2008-12-04)
Audio #1
ID : 1
Format : AC-3
Format/Info : Audio Coding 3
Mode extension : CM (complete main)
Codec ID : 2000
Duration : 1h 48mn
Bit rate mode : Constant
Bit rate : 192 Kbps
Channel(s) : 2 channels
Channel positions : Front: L R
Sampling rate : 48.0 KHz
Bit depth : 16 bits
Compression mode : Lossy
Stream size : 148 MiB (10%)
Alignment : Split accross interleaves
Interleave, duration : 42 ms (1.00 video frame)
Interleave, preload duration : 500 ms
Title : Rus
Audio #2
ID : 2
Format : AC-3
Format/Info : Audio Coding 3
Mode extension : CM (complete main)
Codec ID : 2000
Duration : 1h 48mn
Bit rate mode : Constant
Bit rate : 192 Kbps
Channel(s) : 2 channels
Channel positions : Front: L R
Sampling rate : 48.0 KHz
Bit depth : 16 bits
Compression mode : Lossy
Stream size : 148 MiB (10%)
Alignment : Split accross interleaves
Interleave, duration : 42 ms (1.00 video frame)
Interleave, preload duration : 500 ms
Title : Fra

Скриншот c названием фильма

Скриншоты




Показать сообщения:    

Текущее время: 05-Дек 15:32

Часовой пояс: UTC + 3


Вы не можете начинать темы
Вы не можете отвечать на сообщения
Вы не можете редактировать свои сообщения
Вы не можете удалять свои сообщения
Вы не можете голосовать в опросах
Вы не можете прикреплять файлы к сообщениям
Вы не можете скачивать файлы