(Classical) Johann Sebastian Bach - Violin Concertos - Simon Standage, Micaela Comberti, Miles Golding, Collegium Musicum 90 - 1996, FLAC (image+.cue) lossless


Статистика раздачи [Обновить пиров]
Размер:  335 MB   |    Зарегистрирован:  10 месяцев 20 дней   |    Скачан:  0 раз

Полного источника не было: Никогда

Личеров:  3  [  0 KB/s  ]   Подробная статистика пиров
 
   
 
 
 

[Цитировать]

Johann Sebastian Bach - Violin Concertos - Simon Standage, Micaela Comberti, Miles Golding, Collegium Musicum 90
Жанр: Classical
Страна-производитель диска: UK
Год издания диска: 1996
Издатель (лейбл): Chandos Records
Номер по каталогу: CHAN 0594
Дата записи: 1995
Аудиокодек: FLAC
Тип рипа: image+.cue
Битрейт аудио: lossless
Продолжительность: 61:39
Источник: собственный рип
Наличие сканов в содержимом раздачи: да
Треклист:
Johann Sebastian Bach
[1]-[3] Concerto for violin and strings in A minor, BWV 1041
[4]-[6] Concerto for two violins and strings in D minor, BWV 1043
[7]-[9] Concerto for violin and strings in E major, BWV 1042
[10]-[12] Concerto for three violins and strings in D major
(original lost: reconstructed by Standage from keyboard version BWV 1064)
Исполнители:
Simon Standage violin, director
Micaela Comberti violin ([4]-[6], [10]-[12])
Miles Golding ([10]-[12])
Collegium Musicum 90

Лог создания рипа

Exact Audio Copy V1.0 beta 3 from 29. August 2011
EAC extraction logfile from 1. May 2015, 16:54
Simon Standage, Collegium Musicum 90 / Bach - Violin Concertos
Used drive : HL-DT-STDVDRAM GU70N Adapter: 0 ID: 0
Read mode : SecureUtilize accurate stream : YesDefeat audio cache : YesMake use of C2 pointers : No
Read offset correction : 48Overread into Lead-In and Lead-Out : NoFill up missing offset samples with silence : YesDelete leading and trailing silent blocks : NoNull samples used in CRC calculations : YesUsed interface : Native Win32 interface for Win NT & 2000
Used output format : User Defined EncoderSelected bitrate : 128 kBit/sQuality : HighAdd ID3 tag : NoCommand line compressor : C:\Program Files (x86)\Exact Audio Copy\Flac\flac.exeAdditional command line options : -V -8 -T "Date=%year%" -T "Genre=%genre%" %source%
TOC of the extracted CD
Track | Start | Length | Start sector | End sector --------------------------------------------------------- 1 | 0:00.00 | 3:38.37 | 0 | 16386 2 | 3:38.37 | 6:03.03 | 16387 | 43614 3 | 9:41.40 | 3:41.65 | 43615 | 60254 4 | 13:23.30 | 3:45.02 | 60255 | 77131 5 | 17:08.32 | 6:52.00 | 77132 | 108031 6 | 24:00.32 | 4:41.15 | 108032 | 129121 7 | 28:41.47 | 7:45.18 | 129122 | 164014 8 | 36:26.65 | 6:07.02 | 164015 | 191541 9 | 42:33.67 | 2:44.38 | 191542 | 203879 10 | 45:18.30 | 6:04.07 | 203880 | 231186 11 | 51:22.37 | 5:56.45 | 231187 | 257931 12 | 57:19.07 | 4:20.18 | 257932 | 277449
Range status and errors
Selected range
Filename C:\temp\CHAN_00594 - Bach - Violin Concertos\Bach - Violin Concertos.wav
Peak level 69.3 % Extraction speed 5.2 X Range quality 100.0 % Test CRC E6357FF1 Copy CRC E6357FF1 Copy OK
No errors occurred
AccurateRip summary
Track 1 accurately ripped (confidence 1) [73ADD02B] (AR v2)Track 2 accurately ripped (confidence 1) [77A3F795] (AR v2)Track 3 accurately ripped (confidence 1) [2A3CA5F2] (AR v2)Track 4 accurately ripped (confidence 1) [5DC4A276] (AR v2)Track 5 accurately ripped (confidence 1) [B63A355C] (AR v2)Track 6 accurately ripped (confidence 1) [24A802E2] (AR v2)Track 7 accurately ripped (confidence 1) [95FA7BE9] (AR v2)Track 8 accurately ripped (confidence 1) [A1852DF2] (AR v2)Track 9 accurately ripped (confidence 1) [33999479] (AR v2)Track 10 accurately ripped (confidence 1) [EAB3F454] (AR v2)Track 11 accurately ripped (confidence 1) [A990AE88] (AR v2)Track 12 accurately ripped (confidence 1) [64256D14] (AR v2)
All tracks accurately ripped
End of status report
==== Log checksum F98A1830A5B16B79931959768566BC35C8424CDEAD99A302A28F53258A65848B ====
[teatrix.ru].t12823.torrent 
Торрент: Зарегистрирован [ 2016-01-15 02:10 ] · 67EABCE1D9F7B6A3ABD136052D5DAD1574ABB201

Скачать .torrent

Скачать

27 KB

Статус: проверено
Скачан: 0 раз
Размер: 335 MB
terms.php



Быстрый ответ

Имя:

      
Для отправки сообщений необходимо включить JavaScript
Показать сообщения:    

Текущее время: 04-Дек 02:56

Часовой пояс: UTC + 3


Вы можете начинать темы
Вы можете отвечать на сообщения
Вы не можете редактировать свои сообщения
Вы не можете удалять свои сообщения
Вы не можете голосовать в опросах
Вы не можете прикреплять файлы к сообщениям
Вы можете скачивать файлы