[TR24][OF] Robert Schumann: Works for piano and orchestra (Antonio Pappano, Jan Lisiecki, Orchestra dell\'Accademia Nazionale di Santa Cecilia) - 2016 (Concert for Piano and Orchestra, Classical)


Статистика раздачи [Обновить пиров]
Размер:  1.16 GB   |    Зарегистрирован:  10 месяцев 25 дней   |    Скачан:  0 раз
Сидов:  2  [  0 KB/s  ]   Личеров:  2  [  0 KB/s  ]   Подробная статистика пиров
 
   
 
 
 

[Цитировать]

Robert Schumann - Works for piano and orchestra
Формат записи/Источник записи: [TR24][OF]
Наличие водяных знаков: Нет
Год издания/переиздания диска: 2016
Жанр: Concert for Piano and Orchestra, Classical
Издатель(лейбл): Deutsche Grammophon
Продолжительность: 01:03:06
Исполнитель:
Jan Lisiecki, piano,
Antonio Pappano, Conductor,
Orchestra dell'Accademia Nazionale di Santa Cecilia.
Recorded at Accademia Nazionale di Santa Cecilia, Rome, Italy, September 2015.
Контейнер: FLAC (*.flac)
Тип рипа: tracks
Разрядность: 24/96
Количество каналов: 2.0
Источник: HD-Tracks

DR-Report

foobar2000 1.3.6 / Замер динамического диапазона (DR) 1.1.1Дата отчёта: 2016-01-15 04:07:08
--------------------------------------------------------------------------------Анализ: Jan Lisiecki, Orchestra dell'Accademia Nazionale di Santa Cecilia & Antonio Pappano / Schumann (1-6) Jan Lisiecki / Schumann (7-8)--------------------------------------------------------------------------------
DR Пики RMS Продолжительность трека--------------------------------------------------------------------------------DR14 -1.28 дБ -22.21 дБ 14:18 01-Piano Concerto In A Minor, Op.54 - 1. Allegro affettuosoDR14 -9.99 дБ -29.73 дБ 5:23 02-Piano Concerto In A Minor, Op.54 - 2. Intermezzo (Andantino grazioso)DR13 -1.43 дБ -20.00 дБ 10:12 03-Piano Concerto In A Minor, Op.54 - 3. Allegro vivaceDR12 -6.01 дБ -24.97 дБ 3:04 04-Introduction And Allegro Appassionato, Op.92 - IntroductionDR13 -0.32 дБ -19.22 дБ 11:34 05-Introduction And Allegro Appassionato, Op.92 - Allegro AppassionatoDR13 -1.14 дБ -19.63 дБ 12:38 06-Introduction And Concert-Allegro, Op.134DR14 -16.53 дБ -36.36 дБ 2:19 07-Kinderszenen, Op.15 - 7. TräumereiDR13 -13.73 дБ -33.53 дБ 3:41 08-3 Romanzen, Op.28 - No. 2 In F Sharp (Einfach)--------------------------------------------------------------------------------
Количество треков: 8Реальные значения DR: DR13
Частота: 96000 ГцКаналов: 2Разрядность: 24Битрейт: 2516 кбит/сКодек: FLAC================================================================================

Треклист

Piano Concerto In A Minor, Op.54:
1. 1. Allegro affettuoso
2. 2. Intermezzo (Andantino grazioso)
3. 3. Allegro vivace
Introduction And Allegro Appassionato, Op.92:
4. Introduction
Introduction And Allegro Appassionato, Op.92:
5. Allegro Appassionato
6. Introduction And Concert-Allegro, Op.134:
Kinderszenen, Op.15:
7. 7. Träumerei
3 Romanzen, Op.28:
8. No. 2 In F Sharp (Einfach) [Bonus Track]
[teatrix.ru].t12826.torrent 
Торрент: Зарегистрирован [ 2016-01-15 06:40 ] · 8AFFCE67FF63599F52C4D981561DE9992DEB1486

Скачать .torrent

Скачать

13 KB

Статус: проверено
Скачан: 0 раз
Размер: 1.16 GB
terms.php



Быстрый ответ

Имя:

      
Для отправки сообщений необходимо включить JavaScript
Показать сообщения:    

Текущее время: 09-Дек 22:22

Часовой пояс: UTC + 3


Вы можете начинать темы
Вы можете отвечать на сообщения
Вы не можете редактировать свои сообщения
Вы не можете удалять свои сообщения
Вы не можете голосовать в опросах
Вы не можете прикреплять файлы к сообщениям
Вы можете скачивать файлы