(Score/TV) Ганнибал / Hannibal [TV. Serial Season 1-2] (Brian Reitzell) - 2014 (2013-2014), FLAC (tracks+.cue) lossless


Статистика раздачи [Обновить пиров]
Размер:  1.32 GB   |    Зарегистрирован:  10 месяцев 23 дня   |    Скачан:  0 раз

Полного источника не было: Никогда

Личеров:  2  [  0 KB/s  ]   Подробная статистика пиров
 
   
 
 
 

[Цитировать]

Ганнибал / Hannibal
Название альбома: Hannibal
Жанр: Score
Композитор: Brian Reitzell
Год выпуска диска: 2014
Год выпуска фильма: 2013-2014
Страна-производитель диска: US
Издатель (лейбл): Lakeshore Records
Номер по каталогу:
Аудиокодек: FLAC
Тип рипа: tracks+.cue
Битрейт аудио: lossless - mp3
Продолжительность: 04:49:54
Источник: ltzr
Наличие сканов в содержимом раздачи: да

Season 1 - 02:23:12:

Vol.1
01. Brian Reitzell - Apéritif (13:52)
02. Brian Reitzell - Amuse-bouche (10:07)
03. Brian Reitzell - Potage (6:02)
04. Brian Reitzell - Œuf (12:50)
05. Brian Reitzell - Coquilles (13:20)
06. Brian Reitzell - Entrée (8:17)
07. Brian Reitzell - Sorbet (8:12)
Vol.2
01. Brian Reitzell - Fromage (5:50)
02. Brian Reitzell - Trou Normand (10:58)
03. Brian Reitzell - Buffet Froid (3:31)
04. Brian Reitzell - Rôti (16:51)
05. Brian Reitzell - Relevés (18:14)
06. Brian Reitzell - Savoureux (15:08)

LOG EAC Vol.1:

Exact Audio Copy V1.0 beta 3 from 29. August 2011
EAC extraction logfile from 2. September 2014, 18:55
Brian Reitzell / Hannibal: Season 1 - Volume 1
Used drive : HL-DT-STDVD-RAM GH22LP21 Adapter: 0 ID: 0
Read mode : SecureUtilize accurate stream : YesDefeat audio cache : YesMake use of C2 pointers : No
Read offset correction : 102Overread into Lead-In and Lead-Out : NoFill up missing offset samples with silence : YesDelete leading and trailing silent blocks : NoNull samples used in CRC calculations : YesUsed interface : Native Win32 interface for Win NT & 2000Gap handling : Appended to previous track
Used output format : User Defined EncoderSelected bitrate : 128 kBit/sQuality : HighAdd ID3 tag : NoCommand line compressor : C:\Program Files\Exact Audio Copy\Flac\flac.exeAdditional command line options : -8 -V -T "ARTIST=%artist%" -T "TITLE=%title%" -T "ALBUM=%albumtitle%" -T "DATE=%year%" -T "TRACKNUMBER=%tracknr%" -T "GENRE=%genre%" -T "PERFORMER=%albuminterpret%" -T "COMPOSER=%composer%" %haslyrics%--tag-from-file=LYRICS="%lyricsfile%"%haslyrics% -T "ALBUMARTIST=%albumartist%" -T "ALBUM ARTIST=%albumartist%" -T "DISCNUMBER=%cdnumber%" -T "TOTALDISCS=%totalcds%" -T "TOTALTRACKS=%numtracks%" -T "COMMENT=%comment%" %source% -o %dest%
TOC of the extracted CD
Track | Start | Length | Start sector | End sector --------------------------------------------------------- 1 | 0:00.00 | 13:52.28 | 0 | 62427 2 | 13:52.28 | 10:07.04 | 62428 | 107956 3 | 23:59.32 | 6:01.63 | 107957 | 135094 4 | 30:01.20 | 12:49.54 | 135095 | 192823 5 | 42:50.74 | 13:19.58 | 192824 | 252806 6 | 56:10.57 | 8:16.65 | 252807 | 290071 7 | 64:27.47 | 8:12.22 | 290072 | 326993
Track 1
Filename H:\Music04_moviez\H\Hannibal - Season 1 (2014, Vol 1, FLAC) - Brian Reitzell - Apéritif.wav
Pre-gap length 0:00:02.00
Peak level 94.7 % Extraction speed 2.1 X Track quality 100.0 % Test CRC 3A0CDE46 Copy CRC 3A0CDE46 Track not present in AccurateRip database Copy OK
Track 2
Filename H:\Music04_moviez\H\Hannibal - Season 1 (2014, Vol 1, FLAC) - Brian Reitzell - Amuse-bouche.wav
Peak level 96.2 % Extraction speed 2.6 X Track quality 100.0 % Test CRC 2BA13522 Copy CRC 2BA13522 Track not present in AccurateRip database Copy OK
Track 3
Filename H:\Music04_moviez\H\Hannibal - Season 1 (2014, Vol 1, FLAC) - Brian Reitzell - Potage.wav
Peak level 69.1 % Extraction speed 2.5 X Track quality 99.9 % Test CRC 8E1A296C Copy CRC 8E1A296C Track not present in AccurateRip database Copy OK
Track 4
Filename H:\Music04_moviez\H\Hannibal - Season 1 (2014, Vol 1, FLAC) - Brian Reitzell - Œuf.wav
Peak level 94.6 % Extraction speed 3.1 X Track quality 100.0 % Test CRC B638ADFE Copy CRC B638ADFE Track not present in AccurateRip database Copy OK
Track 5
Filename H:\Music04_moviez\H\Hannibal - Season 1 (2014, Vol 1, FLAC) - Brian Reitzell - Coquilles.wav
Peak level 95.3 % Extraction speed 3.4 X Track quality 99.9 % Test CRC B837572D Copy CRC B837572D Track not present in AccurateRip database Copy OK
Track 6
Filename H:\Music04_moviez\H\Hannibal - Season 1 (2014, Vol 1, FLAC) - Brian Reitzell - Entrée.wav
Peak level 94.8 % Extraction speed 3.7 X Track quality 100.0 % Test CRC F408B6AB Copy CRC F408B6AB Track not present in AccurateRip database Copy OK
Track 7
Filename H:\Music04_moviez\H\Hannibal - Season 1 (2014, Vol 1, FLAC) - Brian Reitzell - Sorbet.wav
Peak level 94.4 % Extraction speed 3.9 X Track quality 100.0 % Test CRC EF8FB0A1 Copy CRC EF8FB0A1 Track not present in AccurateRip database Copy OK
None of the tracks are present in the AccurateRip database
No errors occurred
End of status report
---- CUETools DB Plugin V2.1.3
[CTDB TOCID: 8.b33.hS_Iebu6FjqDf3hpjDCOw-] disk not present in database, Submit result: 8.b33.hS_Iebu6FjqDf3hpjDCOw- has been uploaded
==== Log checksum 9ACF6575FA6261933D4909955AF0659B0AC54BD4C33C5D641B0332FFC453F875 ====

LOG (.CUE)Vol.1:

REM GENRE SoundtrackREM DATE 2014REM DISCID 60110707REM COMMENT "ExactAudioCopy v1.0b3"PERFORMER "Brian Reitzell"TITLE "Hannibal: Season 1 - Volume 1"FILE "01 - Apéritif.wav" WAVE TRACK 01 AUDIO TITLE "Apéritif" PERFORMER "Brian Reitzell" INDEX 01 00:00:00FILE "02 - Amuse-bouche.wav" WAVE TRACK 02 AUDIO TITLE "Amuse-bouche" PERFORMER "Brian Reitzell" INDEX 01 00:00:00FILE "03 - Potage.wav" WAVE TRACK 03 AUDIO TITLE "Potage" PERFORMER "Brian Reitzell" INDEX 01 00:00:00FILE "04 - Œuf.wav" WAVE TRACK 04 AUDIO TITLE "Œuf" PERFORMER "Brian Reitzell" INDEX 01 00:00:00FILE "05 - Coquilles.wav" WAVE TRACK 05 AUDIO TITLE "Coquilles" PERFORMER "Brian Reitzell" INDEX 01 00:00:00FILE "06 - Entrée.wav" WAVE TRACK 06 AUDIO TITLE "Entrée" PERFORMER "Brian Reitzell" INDEX 01 00:00:00FILE "07 - Sorbet.wav" WAVE TRACK 07 AUDIO TITLE "Sorbet" PERFORMER "Brian Reitzell" INDEX 01 00:00:00

LOG EAC Vol.2:

Exact Audio Copy V1.0 beta 3 from 29. August 2011
EAC extraction logfile from 2. September 2014, 21:58
Brian Reitzell / Hannibal- Season 1 - Volume 2
Used drive : HL-DT-STDVD-RAM GH22LP21 Adapter: 0 ID: 0
Read mode : SecureUtilize accurate stream : YesDefeat audio cache : YesMake use of C2 pointers : No
Read offset correction : 102Overread into Lead-In and Lead-Out : NoFill up missing offset samples with silence : YesDelete leading and trailing silent blocks : NoNull samples used in CRC calculations : YesUsed interface : Native Win32 interface for Win NT & 2000Gap handling : Appended to previous track
Used output format : User Defined EncoderSelected bitrate : 128 kBit/sQuality : HighAdd ID3 tag : NoCommand line compressor : C:\Program Files\Exact Audio Copy\Flac\flac.exeAdditional command line options : -8 -V -T "ARTIST=%artist%" -T "TITLE=%title%" -T "ALBUM=%albumtitle%" -T "DATE=%year%" -T "TRACKNUMBER=%tracknr%" -T "GENRE=%genre%" -T "PERFORMER=%albuminterpret%" -T "COMPOSER=%composer%" %haslyrics%--tag-from-file=LYRICS="%lyricsfile%"%haslyrics% -T "ALBUMARTIST=%albumartist%" -T "ALBUM ARTIST=%albumartist%" -T "DISCNUMBER=%cdnumber%" -T "TOTALDISCS=%totalcds%" -T "TOTALTRACKS=%numtracks%" -T "COMMENT=%comment%" %source% -o %dest%
TOC of the extracted CD
Track | Start | Length | Start sector | End sector --------------------------------------------------------- 1 | 0:00.00 | 5:50.31 | 0 | 26280 2 | 5:50.31 | 10:58.02 | 26281 | 75632 3 | 16:48.33 | 3:30.64 | 75633 | 91446 4 | 20:19.22 | 16:51.25 | 91447 | 167296 5 | 37:10.47 | 18:14.15 | 167297 | 249361 6 | 55:24.62 | 15:08.31 | 249362 | 317492
Track 1
Filename H:\Music04_moviez\H\Hannibal - Season 1 (2014, Vol 2, FLAC) - Brian Reitzell - Fromage.wav
Pre-gap length 0:00:02.00
Peak level 95.3 % Extraction speed 1.8 X Track quality 100.0 % Test CRC 01FB7D47 Copy CRC 01FB7D47 Track not present in AccurateRip database Copy OK
Track 2
Filename H:\Music04_moviez\H\Hannibal - Season 1 (2014, Vol 2, FLAC) - Brian Reitzell - Trou Normand.wav
Peak level 88.7 % Extraction speed 2.1 X Track quality 99.9 % Test CRC 45726963 Copy CRC 45726963 Track not present in AccurateRip database Copy OK
Track 3
Filename H:\Music04_moviez\H\Hannibal - Season 1 (2014, Vol 2, FLAC) - Brian Reitzell - Buffet Froid.wav
Peak level 94.8 % Extraction speed 2.2 X Track quality 100.0 % Test CRC FC472465 Copy CRC FC472465 Track not present in AccurateRip database Copy OK
Track 4
Filename H:\Music04_moviez\H\Hannibal - Season 1 (2014, Vol 2, FLAC) - Brian Reitzell - Rôti.wav
Peak level 95.0 % Extraction speed 2.9 X Track quality 100.0 % Test CRC 93D2183C Copy CRC 93D2183C Track not present in AccurateRip database Copy OK
Track 5
Filename H:\Music04_moviez\H\Hannibal - Season 1 (2014, Vol 2, FLAC) - Brian Reitzell - Relevés.wav
Peak level 95.7 % Extraction speed 3.4 X Track quality 100.0 % Test CRC 468026BB Copy CRC 468026BB Track not present in AccurateRip database Copy OK
Track 6
Filename H:\Music04_moviez\H\Hannibal - Season 1 (2014, Vol 2, FLAC) - Brian Reitzell - Savoureux.wav
Peak level 95.0 % Extraction speed 3.8 X Track quality 100.0 % Test CRC 1CA69574 Copy CRC 1CA69574 Track not present in AccurateRip database Copy OK
None of the tracks are present in the AccurateRip database
No errors occurred
End of status report
---- CUETools DB Plugin V2.1.3
[CTDB TOCID: kqQ3gqaScMZnx7URPLJ1iCigu7g-] disk not present in database, Submit result: kqQ3gqaScMZnx7URPLJ1iCigu7g- has been uploaded
==== Log checksum DC60AB967C0FD7687536EE6EB95B03AAA9AB47E04A066F964C302517D00F2699 ====

LOG (.CUE)Vol.2:

REM GENRE SoundtrackREM DATE 2014REM DISCID 2B108906REM COMMENT "ExactAudioCopy v1.0b3"PERFORMER "Brian Reitzell"TITLE "Hannibal: Season 1 - Volume 2"FILE "01 - Fromage.wav" WAVE TRACK 01 AUDIO TITLE "Fromage" PERFORMER "Brian Reitzell" INDEX 01 00:00:00FILE "02 - Trou Normand.wav" WAVE TRACK 02 AUDIO TITLE "Trou Normand" PERFORMER "Brian Reitzell" INDEX 01 00:00:00FILE "03 - Buffet Froid.wav" WAVE TRACK 03 AUDIO TITLE "Buffet Froid" PERFORMER "Brian Reitzell" INDEX 01 00:00:00FILE "04 - Rôti.wav" WAVE TRACK 04 AUDIO TITLE "Rôti" PERFORMER "Brian Reitzell" INDEX 01 00:00:00FILE "05 - Relevés.wav" WAVE TRACK 05 AUDIO TITLE "Relevés" PERFORMER "Brian Reitzell" INDEX 01 00:00:00FILE "06 - Savoureux.wav" WAVE TRACK 06 AUDIO TITLE "Savoureux" PERFORMER "Brian Reitzell" INDEX 01 00:00:00

LOG auCDtect-Vol.1:

-----------------------
DON'T MODIFY THIS FILE
-----------------------
PERFORMER: auCDtect Task Manager, ver. 1.5.1RC2 build 1.5.1.3Copyright (c) 2008-2010 y-soft. All rights reservedhttp://y-soft.org
ANALYZER: auCDtect: CD records authenticity detector, version 0.8.2Copyright (c) 2004 Oleg Berngardt. All rights reserved.Copyright (c) 2004 Alexander Djourik. All rights reserved.
FILE: 07 - Sorbet.flac Size: 32498193 Hash: AD7EB1DCF9624882B73E266FF0673762 Accuracy: -m0 Conclusion: CDDA 100% Signature: 9A0F74CA193E7ECDD7E0145D193A61940EB27580FILE: 06 - Entrée.flac Size: 33585014 Hash: 33EFABEEA8362BD7DE0EFD0013B78BB6 Accuracy: -m0 Conclusion: CDDA 100% Signature: 98D46106BB5CCE10EF6BEB298264B704D88DAA40FILE: 05 - Coquilles.flac Size: 60396894 Hash: 420F50379E4EF3D9AFCE1DFB1D6437F7 Accuracy: -m0 Conclusion: CDDA 100% Signature: 707A05DB405D4B5DC9B1DD4E75EDBBF330A0038AFILE: 04 - Œuf.flac Size: 51410879 Hash: 575DD493A42CBF63E67B72136CE9AD9C Accuracy: -m0 Conclusion: CDDA 100% Signature: 135232C7AA8C44EF845BC21EC0296447683A7370FILE: 03 - Potage.flac Size: 25089030 Hash: 455D730E78D3AF0FB692570FD6B9F6DC Accuracy: -m0 Conclusion: CDDA 99% Signature: FF4D0A067536FFF7C133C8E4E495B8A3CC0E3A4EFILE: 02 - Amuse-bouche.flac Size: 44416369 Hash: C4AFF380D60D9C74633C3B722E4A68A2 Accuracy: -m0 Conclusion: CDDA 100% Signature: BBDA31448AC575ECA5595DA7FB18E29BD41D3970FILE: 01 - Apéritif.flac Size: 59517872 Hash: C2723DC7A22BC9FB66CAD27E5A4B0315 Accuracy: -m0 Conclusion: CDDA 100% Signature: 1D57C09D3CA2A2D9C926B10C3FAB3C3D6B1E5DDB

LOG auCDtect-Vol.2:

-----------------------
DON'T MODIFY THIS FILE
-----------------------
PERFORMER: auCDtect Task Manager, ver. 1.5.1RC2 build 1.5.1.3Copyright (c) 2008-2010 y-soft. All rights reservedhttp://y-soft.org
ANALYZER: auCDtect: CD records authenticity detector, version 0.8.2Copyright (c) 2004 Oleg Berngardt. All rights reserved.Copyright (c) 2004 Alexander Djourik. All rights reserved.
FILE: 06 - Savoureux.flac Size: 69144045 Hash: 6363BB75B2FD0BCA3D315C19594C1BB4 Accuracy: -m0 Conclusion: CDDA 100% Signature: 37530B399688DAEC2FA29FEBAC8FF8362165AC7FFILE: 05 - Relevés.flac Size: 68364988 Hash: A650BABE3ECA7F79EBF37C28B4D65F8B Accuracy: -m0 Conclusion: CDDA 100% Signature: 07CFEDF6BA775086DABF9425A1AA0A8F74BF7E94FILE: 04 - Rôti.flac Size: 72920004 Hash: FAB3BF9A948C4A3AF728F38B4D69391D Accuracy: -m0 Conclusion: CDDA 100% Signature: 3FC01DAE10757CBEA2A7FFF8DDBD06278F6096A9FILE: 03 - Buffet Froid.flac Size: 16026112 Hash: 7948E900671E693009E4B72DD2023BCC Accuracy: -m0 Conclusion: CDDA 100% Signature: 97004C833F0D6A9C46D7679A56A0854A4527C491FILE: 02 - Trou Normand.flac Size: 43309550 Hash: CCE9CC654A82D74ACC0D1F2E7991D97A Accuracy: -m0 Conclusion: CDDA 100% Signature: 0F6692C87D16A833986DF52DC4961B28865251A4FILE: 01 - Fromage.flac Size: 25748989 Hash: 6220A81D2AE6312405CCE50B5A2E96D3 Accuracy: -m0 Conclusion: CDDA 100% Signature: 3349126BF2F114EFB4E970C76A6ADC5133D78300

Season 2 - 02:26:42:

Vol.1
01. Brian Reitzell - Kaiseki (6:23)
02. Brian Reitzell - Sakizuke (8:47)
03. Brian Reitzell - Hassun (7:59)
04. Brian Reitzell - Takiawase (14:51)
05. Brian Reitzell - Mukozuke (11:31)
06. Brian Reitzell - Futamono (9:30)
07. Brian Reitzell - Yakimono (14:03)
Vol.2
01. Brian Reitzell - Su-zakana (9:09)
02. Brian Reitzell - Shiizakana (6:27)
03. Brian Reitzell - Naka-choko (16:30)
04. Brian Reitzell - Ko no mono (13:29)
05. Brian Reitzell - Tome-wan (8:00)
06. Brian Reitzell - Mizumono (10:56)
07. Brian Reitzell - Bloodfest (from Mizumono) (9:07)

LOG EAC Vol.1:

Exact Audio Copy V1.0 beta 3 from 29. August 2011
EAC extraction logfile from 23. September 2014, 15:32
Brian Reitzell / Hannibal: Season 2 - Volume 1
Used drive : HL-DT-STDVD-RAM GH22LP21 Adapter: 0 ID: 0
Read mode : SecureUtilize accurate stream : YesDefeat audio cache : YesMake use of C2 pointers : No
Read offset correction : 102Overread into Lead-In and Lead-Out : NoFill up missing offset samples with silence : YesDelete leading and trailing silent blocks : NoNull samples used in CRC calculations : YesUsed interface : Native Win32 interface for Win NT & 2000Gap handling : Appended to previous track
Used output format : User Defined EncoderSelected bitrate : 128 kBit/sQuality : HighAdd ID3 tag : NoCommand line compressor : C:\Program Files\Exact Audio Copy\Flac\flac.exeAdditional command line options : -8 -V -T "ARTIST=%artist%" -T "TITLE=%title%" -T "ALBUM=%albumtitle%" -T "DATE=%year%" -T "TRACKNUMBER=%tracknr%" -T "GENRE=%genre%" -T "PERFORMER=%albuminterpret%" -T "COMPOSER=%composer%" %haslyrics%--tag-from-file=LYRICS="%lyricsfile%"%haslyrics% -T "ALBUMARTIST=%albumartist%" -T "ALBUM ARTIST=%albumartist%" -T "DISCNUMBER=%cdnumber%" -T "TOTALDISCS=%totalcds%" -T "TOTALTRACKS=%numtracks%" -T "COMMENT=%comment%" %source% -o %dest%
TOC of the extracted CD
Track | Start | Length | Start sector | End sector --------------------------------------------------------- 1 | 0:00.00 | 6:22.39 | 0 | 28688 2 | 6:22.39 | 8:46.70 | 28689 | 68208 3 | 15:09.34 | 7:59.29 | 68209 | 104162 4 | 23:08.63 | 14:51.06 | 104163 | 170993 5 | 37:59.69 | 11:31.37 | 170994 | 222855 6 | 49:31.31 | 9:30.06 | 222856 | 265611 7 | 59:01.37 | 14:02.56 | 265612 | 328817
Track 1
Filename H:\Music04_moviez\H\Hannibal - Season 2 (2014, Vol 1, FLAC) - Brian Reitzell - Kaiseki.wav
Pre-gap length 0:00:02.00
Peak level 94.1 % Extraction speed 1.8 X Track quality 100.0 % Test CRC D7441844 Copy CRC D7441844 Track not present in AccurateRip database Copy OK
Track 2
Filename H:\Music04_moviez\H\Hannibal - Season 2 (2014, Vol 1, FLAC) - Brian Reitzell - Sakizuke.wav
Peak level 90.0 % Extraction speed 2.3 X Track quality 100.0 % Test CRC 12820AE1 Copy CRC 12820AE1 Track not present in AccurateRip database Copy OK
Track 3
Filename H:\Music04_moviez\H\Hannibal - Season 2 (2014, Vol 1, FLAC) - Brian Reitzell - Hassun.wav
Peak level 96.6 % Extraction speed 2.4 X Track quality 99.9 % Test CRC C3389A1C Copy CRC C3389A1C Track not present in AccurateRip database Copy OK
Track 4
Filename H:\Music04_moviez\H\Hannibal - Season 2 (2014, Vol 1, FLAC) - Brian Reitzell - Takiawase.wav
Peak level 96.6 % Extraction speed 2.9 X Track quality 99.9 % Test CRC 2CA8DFE4 Copy CRC 2CA8DFE4 Track not present in AccurateRip database Copy OK
Track 5
Filename H:\Music04_moviez\H\Hannibal - Season 2 (2014, Vol 1, FLAC) - Brian Reitzell - Mukōzuke.wav
Peak level 91.7 % Extraction speed 3.3 X Track quality 100.0 % Test CRC 3223CC8C Copy CRC 3223CC8C Track not present in AccurateRip database Copy OK
Track 6
Filename H:\Music04_moviez\H\Hannibal - Season 2 (2014, Vol 1, FLAC) - Brian Reitzell - Futamono.wav
Peak level 95.2 % Extraction speed 3.6 X Track quality 100.0 % Test CRC BE04B5B0 Copy CRC BE04B5B0 Track not present in AccurateRip database Copy OK
Track 7
Filename H:\Music04_moviez\H\Hannibal - Season 2 (2014, Vol 1, FLAC) - Brian Reitzell - Yakimono.wav
Peak level 94.2 % Extraction speed 4.0 X Track quality 100.0 % Test CRC 9678AA64 Copy CRC 9678AA64 Track not present in AccurateRip database Copy OK
None of the tracks are present in the AccurateRip database
No errors occurred
End of status report
---- CUETools DB Plugin V2.1.3
[CTDB TOCID: RFcKJr0b5WecI5dqW28SeuUbjnY-] disk not present in database, Submit result: RFcKJr0b5WecI5dqW28SeuUbjnY- has been uploaded
==== Log checksum 5C03103DEA9A2A7E2F3B3311C8209EB9AA5B45AD8EE513AF8212DCA1593689AF ====

LOG (.CUE)Vol.1:

REM GENRE SoundtrackREM DATE 2014REM DISCID 5A112007REM COMMENT "ExactAudioCopy v1.0b3"PERFORMER "Brian Reitzell"TITLE "Hannibal: Season 2 - Volume 1"FILE "01 - Kaiseki.wav" WAVE TRACK 01 AUDIO TITLE "Kaiseki" PERFORMER "Brian Reitzell" INDEX 01 00:00:00FILE "02 - Sakizuke.wav" WAVE TRACK 02 AUDIO TITLE "Sakizuke" PERFORMER "Brian Reitzell" INDEX 01 00:00:00FILE "03 - Hassun.wav" WAVE TRACK 03 AUDIO TITLE "Hassun" PERFORMER "Brian Reitzell" INDEX 01 00:00:00FILE "04 - Takiawase.wav" WAVE TRACK 04 AUDIO TITLE "Takiawase" PERFORMER "Brian Reitzell" INDEX 01 00:00:00FILE "05 - Mukōzuke.wav" WAVE TRACK 05 AUDIO TITLE "Mukōzuke" PERFORMER "Brian Reitzell" INDEX 01 00:00:00FILE "06 - Futamono.wav" WAVE TRACK 06 AUDIO TITLE "Futamono" PERFORMER "Brian Reitzell" INDEX 01 00:00:00FILE "07 - Yakimono.wav" WAVE TRACK 07 AUDIO TITLE "Yakimono" PERFORMER "Brian Reitzell" INDEX 01 00:00:00

LOG EAC Vol.2:

Exact Audio Copy V1.0 beta 3 from 29. August 2011
EAC extraction logfile from 23. September 2014, 16:59
Brian Reitzell / Hannibal: Season 2 - Volume 2
Used drive : HL-DT-STDVD-RAM GH22LP21 Adapter: 0 ID: 0
Read mode : SecureUtilize accurate stream : YesDefeat audio cache : YesMake use of C2 pointers : No
Read offset correction : 102Overread into Lead-In and Lead-Out : NoFill up missing offset samples with silence : YesDelete leading and trailing silent blocks : NoNull samples used in CRC calculations : YesUsed interface : Native Win32 interface for Win NT & 2000Gap handling : Appended to previous track
Used output format : User Defined EncoderSelected bitrate : 128 kBit/sQuality : HighAdd ID3 tag : NoCommand line compressor : C:\Program Files\Exact Audio Copy\Flac\flac.exeAdditional command line options : -8 -V -T "ARTIST=%artist%" -T "TITLE=%title%" -T "ALBUM=%albumtitle%" -T "DATE=%year%" -T "TRACKNUMBER=%tracknr%" -T "GENRE=%genre%" -T "PERFORMER=%albuminterpret%" -T "COMPOSER=%composer%" %haslyrics%--tag-from-file=LYRICS="%lyricsfile%"%haslyrics% -T "ALBUMARTIST=%albumartist%" -T "ALBUM ARTIST=%albumartist%" -T "DISCNUMBER=%cdnumber%" -T "TOTALDISCS=%totalcds%" -T "TOTALTRACKS=%numtracks%" -T "COMMENT=%comment%" %source% -o %dest%
TOC of the extracted CD
Track | Start | Length | Start sector | End sector --------------------------------------------------------- 1 | 0:00.00 | 9:08.59 | 0 | 41158 2 | 9:08.59 | 6:26.74 | 41159 | 70182 3 | 15:35.58 | 16:29.64 | 70183 | 144421 4 | 32:05.47 | 13:28.50 | 144422 | 205071 5 | 45:34.22 | 7:59.72 | 205072 | 241068 6 | 53:34.19 | 10:56.27 | 241069 | 290295 7 | 64:30.46 | 9:06.59 | 290296 | 331304
Track 1
Filename H:\Music04_moviez\H\Hannibal - Season 2 (2014, Vol 2, FLAC) - Brian Reitzell - Su-zakana.wav
Pre-gap length 0:00:02.00
Peak level 92.5 % Extraction speed 1.9 X Track quality 99.9 % Test CRC 8D8476D2 Copy CRC 8D8476D2 Track not present in AccurateRip database Copy OK
Track 2
Filename H:\Music04_moviez\H\Hannibal - Season 2 (2014, Vol 2, FLAC) - Brian Reitzell - Shiizakana.wav
Peak level 93.0 % Extraction speed 2.3 X Track quality 100.0 % Test CRC AC346AD0 Copy CRC AC346AD0 Track not present in AccurateRip database Copy OK
Track 3
Filename H:\Music04_moviez\H\Hannibal - Season 2 (2014, Vol 2, FLAC) - Brian Reitzell - Naka-choko.wav
Peak level 92.6 % Extraction speed 2.8 X Track quality 100.0 % Test CRC E5512754 Copy CRC E5512754 Track not present in AccurateRip database Copy OK
Track 4
Filename H:\Music04_moviez\H\Hannibal - Season 2 (2014, Vol 2, FLAC) - Brian Reitzell - Kō no mono.wav
Peak level 95.5 % Extraction speed 3.2 X Track quality 100.0 % Test CRC 54BA47A5 Copy CRC 54BA47A5 Track not present in AccurateRip database Copy OK
Track 5
Filename H:\Music04_moviez\H\Hannibal - Season 2 (2014, Vol 2, FLAC) - Brian Reitzell - Tome-wan.wav
Peak level 95.5 % Extraction speed 3.4 X Track quality 100.0 % Test CRC 022AEA00 Copy CRC 022AEA00 Track not present in AccurateRip database Copy OK
Track 6
Filename H:\Music04_moviez\H\Hannibal - Season 2 (2014, Vol 2, FLAC) - Brian Reitzell - Mizumono.wav
Peak level 93.6 % Extraction speed 3.5 X Track quality 99.9 % Test CRC 16B3CA01 Copy CRC 16B3CA01 Track not present in AccurateRip database Copy OK
Track 7
Filename H:\Music04_moviez\H\Hannibal - Season 2 (2014, Vol 2, FLAC) - Brian Reitzell - Bloodfest (from Mizumono).wav
Peak level 59.0 % Extraction speed 3.7 X Track quality 99.9 % Test CRC 4BCDE8D0 Copy CRC 4BCDE8D0 Track not present in AccurateRip database Copy OK
None of the tracks are present in the AccurateRip database
No errors occurred
End of status report
---- CUETools DB Plugin V2.1.3
[CTDB TOCID: fGB8EMUWLLX1U7fD0GsaeayXvzk-] disk not present in database, Submit result: fGB8EMUWLLX1U7fD0GsaeayXvzk- has been uploaded
==== Log checksum A639192C5B4EDBBFCDBE3443CBFE434A92B2140057A0FC966BD3488CC23A9E86 ====

LOG (.CUE)Vol.2:

REM GENRE SoundtrackREM DATE 2014REM DISCID 64114107REM COMMENT "ExactAudioCopy v1.0b3"PERFORMER "Brian Reitzell"TITLE "Hannibal: Season 2 - Volume 2"FILE "01 - Su-zakana.wav" WAVE TRACK 01 AUDIO TITLE "Su-zakana" PERFORMER "Brian Reitzell" INDEX 01 00:00:00FILE "02 - Shiizakana.wav" WAVE TRACK 02 AUDIO TITLE "Shiizakana" PERFORMER "Brian Reitzell" INDEX 01 00:00:00FILE "03 - Naka-choko.wav" WAVE TRACK 03 AUDIO TITLE "Naka-choko" PERFORMER "Brian Reitzell" INDEX 01 00:00:00FILE "04 - Kō no mono.wav" WAVE TRACK 04 AUDIO TITLE "Kō no mono" PERFORMER "Brian Reitzell" INDEX 01 00:00:00FILE "05 - Tome-wan.wav" WAVE TRACK 05 AUDIO TITLE "Tome-wan" PERFORMER "Brian Reitzell" INDEX 01 00:00:00FILE "06 - Mizumono.wav" WAVE TRACK 06 AUDIO TITLE "Mizumono" PERFORMER "Brian Reitzell" INDEX 01 00:00:00FILE "07 - Bloodfest (from Mizumono).wav" WAVE TRACK 07 AUDIO TITLE "Bloodfest (from Mizumono)" PERFORMER "Brian Reitzell" INDEX 01 00:00:00

LOG auCDtect-Vol.1:

-----------------------
DON'T MODIFY THIS FILE
-----------------------
PERFORMER: auCDtect Task Manager, ver. 1.5.1RC2 build 1.5.1.3Copyright (c) 2008-2010 y-soft. All rights reservedhttp://y-soft.org
ANALYZER: auCDtect: CD records authenticity detector, version 0.8.2Copyright (c) 2004 Oleg Berngardt. All rights reserved.Copyright (c) 2004 Alexander Djourik. All rights reserved.
FILE: 07 - Yakimono.flac Size: 54179266 Hash: AF29C5B15B6F0EFC47226F2B21A9D4F5 Accuracy: -m0 Conclusion: CDDA 100% Signature: E4374ACBC1B029A1665299B5AE126B62AA239FB4FILE: 06 - Futamono.flac Size: 50413521 Hash: 1D87B60726753C7CB3F44F75F9A60CFA Accuracy: -m0 Conclusion: CDDA 100% Signature: A18F9E19FABFCCA6BA6A6192A086AA48E794B575FILE: 05 - Mukōzuke.flac Size: 43900533 Hash: A3CEF57792796663BC7ECEB19C2DABB5 Accuracy: -m0 Conclusion: CDDA 94% Signature: 8C7D863E90F6D92C5FD56782F1F8F0C396C15E47FILE: 04 - Takiawase.flac Size: 62284693 Hash: 553DB5309ABC0B85C62444FA005937C0 Accuracy: -m0 Conclusion: CDDA 100% Signature: 343CFF1A59E18E8D9C55DCD6073ABF182512DA24FILE: 03 - Hassun.flac Size: 37591045 Hash: FFD47542A54CAFD57E18858321B5D6E5 Accuracy: -m0 Conclusion: CDDA 100% Signature: 45D995114102426DBC155FA036D5210D111F2391FILE: 02 - Sakizuke.flac Size: 40967666 Hash: 1398398DEDC6B5977B6E8448B1937D36 Accuracy: -m0 Conclusion: CDDA 100% Signature: 7494879C15FB654BF4ED06D9ED8A18CFAE7C4847FILE: 01 - Kaiseki.flac Size: 27006442 Hash: 47F196383131D3F32C88E35D07B06E80 Accuracy: -m0 Conclusion: CDDA 100% Signature: BC2067E7C1C043FB7A5C3E29D87D9D45F23CC3AA

LOG auCDtect-Vol.2:

-----------------------
DON'T MODIFY THIS FILE
-----------------------
PERFORMER: auCDtect Task Manager, ver. 1.5.1RC2 build 1.5.1.3Copyright (c) 2008-2010 y-soft. All rights reservedhttp://y-soft.org
ANALYZER: auCDtect: CD records authenticity detector, version 0.8.2Copyright (c) 2004 Oleg Berngardt. All rights reserved.Copyright (c) 2004 Alexander Djourik. All rights reserved.
FILE: 07 - Bloodfest (from Mizumono).flac Size: 41939577 Hash: 4C4459CF1F92B13C29EA35AF4E3877A1 Accuracy: -m0 Conclusion: CDDA 100% Signature: 83E41945526AF2B2339AF8443EC64D2841D5EFCFFILE: 06 - Mizumono.flac Size: 54094746 Hash: F20DF82A1570C11B4F70E0EF3FC14A83 Accuracy: -m0 Conclusion: CDDA 100% Signature: BC4642552E80200562D164FFD79160A915F26C81FILE: 05 - Tome-wan.flac Size: 37583092 Hash: FC47181AE843A7D93B7D2AB30E0DFE36 Accuracy: -m0 Conclusion: CDDA 100% Signature: 78E6801A5D46606B39A60A2A631C26C52E7A4618FILE: 04 - Kō no mono.flac Size: 52396130 Hash: 0D9D10F34B3BB155AAE06C79D9EF421A Accuracy: -m0 Conclusion: CDDA 100% Signature: CA03E0A5F8873FC3AA95F0F8922ABB2943172132FILE: 03 - Naka-choko.flac Size: 64394589 Hash: C67C2CB83C6E7BC06C68ED222E90E774 Accuracy: -m0 Conclusion: CDDA 100% Signature: 5EBE78D5DF74B520A6A4EF15A3AE72645FEC79C3FILE: 02 - Shiizakana.flac Size: 28878784 Hash: F3824EBE0753620A6EE0274764826518 Accuracy: -m0 Conclusion: CDDA 99% Signature: 57EAA83543A3BDBA6DF98F947E86916BF34DA2DEFILE: 01 - Su-zakana.flac Size: 37740101 Hash: C338C888F3A3D0E5D878815745337ED7 Accuracy: -m0 Conclusion: CDDA 99% Signature: D0D47F764E773945FCD718A47AED02A8DBC828D1
-
[teatrix.ru].t12828.torrent 
Торрент: Зарегистрирован [ 2016-01-15 12:12 ] · 1D6AEBA3827AE02888BBA7EA5237D7A5EE5AB702

Скачать .torrent

Скачать

20 KB

Статус: проверено
Скачан: 0 раз
Размер: 1.32 GB
terms.php



Быстрый ответ

Имя:

      
Для отправки сообщений необходимо включить JavaScript
Показать сообщения:    

Текущее время: 08-Дек 03:14

Часовой пояс: UTC + 3


Вы можете начинать темы
Вы можете отвечать на сообщения
Вы не можете редактировать свои сообщения
Вы не можете удалять свои сообщения
Вы не можете голосовать в опросах
Вы не можете прикреплять файлы к сообщениям
Вы можете скачивать файлы