Остров / Island (Элизабет Митчелл / Elizabeth Mitchell, Брек Тейлор / Brek Taylor) [2011, Великобритания, драма, DVDRip] Sub Rus (reaktivv) + Original Eng


Статистика раздачи [Обновить пиров]
Размер:  1.46 GB   |    Зарегистрирован:  10 месяцев 22 дня   |    Скачан:  1 раз

Полного источника не было: 3 месяца 1 день

Личеров:  2  [  0 KB/s  ]   Подробная статистика пиров
 
   
 
 
 

[Цитировать]

Остров / Island
Страна: Великобритания
Жанр: драма
Год выпуска: 2011
Продолжительность: 01:36:28
Перевод: Субтитры - reaktivv
Cубтитры: русские
Оригинальная аудиодорожка: английский

Режиссер: Элизабет Митчелл / Elizabeth Mitchell, Брек Тейлор / Brek Taylor
В ролях: Натали Пресс, Колин Морган, Джанет МакТир, Таня Фрэнкс, Денис Орита, Кейт Стивенс, Алекс Дональд, Никки Танген, Шарлотта Уонтнер, Уилл Пэйс
Описание: 29-летняя Никки Блэк приезжает на один из дальних островов Гебридского архипелага, чтобы найти мать, которая бросила её в детстве, и отомстить ей. Но встреча со сводным братом заставляет Никки усомниться в своих планах. По мотивам одноименного романа Джейн Роджерс.

Качество видео: DVDRip
Формат видео: AVI
Видео: 704x400 (1.76:1), 25 fps, XviD build 73 ~1704 kbps avg, 0.24 bit/pixel
Аудио: 48 kHz, AC3 Dolby Digital, 3/2 (L,C,R,l,r) + LFE ch, ~448 kbps

Фрагмент субтитров

399
00:56:34,160 --> 00:56:36,230
Ты когда-нибудь был на большой земле?
400
00:56:36,400 --> 00:56:39,039
Однажды был. В больнице с мамой.
401
00:56:40,240 --> 00:56:42,071
Отец никогда не возил тебя туда?
402
00:56:44,560 --> 00:56:46,039
Как обидно.
403
00:56:46,520 --> 00:56:48,556
Уверена, тебе хотелось бы съездить.
404
00:56:50,360 --> 00:56:51,918
Почему бы нам не съездить?
405
00:56:52,160 --> 00:56:53,070
Вместе?
406
00:56:54,040 --> 00:56:55,268
На большую землю?
407
00:56:56,760 --> 00:56:57,829
Когда?
408
00:56:58,560 --> 00:56:59,788
Когда захотим!
409
00:56:59,960 --> 00:57:01,393
Не знаю, не знаю.
410
00:57:03,640 --> 00:57:05,710
Там целый мир, Калум.
411
00:57:06,400 --> 00:57:07,549
Он полон сокровищ!
412
00:57:09,720 --> 00:57:11,039
А что насчёт моей мамы?
413
00:57:11,840 --> 00:57:12,909
А что с ней?
414
00:57:12,920 --> 00:57:14,876
Разве ты не хочешь посмотреть откуда я приехала?
415
00:57:15,160 --> 00:57:16,434
Откуда ты?
416
00:57:17,160 --> 00:57:19,594
Ниоткуда... Отовсюду.
417
00:57:20,040 --> 00:57:21,359
Я отовсюду.
418
00:57:22,120 --> 00:57:23,394
Я не уверен.
419
00:57:24,720 --> 00:57:27,393
Я когда-нибудь рассказывала
тебе историю о Еловом Яблоке?
420
00:57:31,880 --> 00:57:36,271
Давным-давно маленький
мальчик был брошен в лесу.

MediaInfo

Общее
Полное имя : H:\Island.2011.dvdrip_[1.46]_[teko]\Island.2011.dvdrip_[1.46].avi
Формат : AVI
Формат/Информация : Audio Video Interleave
Размер файла : 1,46 Гбайт
Продолжительность : 1 ч. 36 м.
Общий поток : 2162 Кбит/сек
Программа кодирования : VirtualDubMod 1.5.10.3 | www.virtualdub-fr.org || (build 2550/release)
Библиотека кодирования : VirtualDubMod build 2550/release
Видео
Идентификатор : 0
Формат : MPEG-4 Visual
Профиль формата : Advanced Simple@L5
Параметр BVOP формата : 1
Параметр QPel формата : Нет
Параметр GMC формата : Без точки перехода
Параметр матрицы формата : Выборочная
Идентификатор кодека : XVID
Идентификатор кодека/Подсказка : XviD
Продолжительность : 1 ч. 36 м.
Битрейт : 1705 Кбит/сек
Ширина : 704 пикселя
Высота : 400 пикселей
Соотношение сторон : 16:9
Частота кадров : 25,000 кадров/сек
Цветовое пространство : YUV
Субдискретизация насыщенности : 4:2:0
Битовая глубина : 8 бит
Тип развёртки : Прогрессивная
Метод сжатия : С потерями
Бит/(Пиксели*Кадры) : 0.242
Размер потока : 1,15 Гбайт (79%)
Библиотека кодирования : XviD 73
Аудио
Идентификатор : 1
Формат : AC-3
Формат/Информация : Audio Coding 3
Расширение режима : CM (complete main)
Параметр Endianness формата : Big
Идентификатор кодека : 2000
Продолжительность : 1 ч. 36 м.
Вид битрейта : Постоянный
Битрейт : 448 Кбит/сек
Каналы : 6 каналов
Расположение каналов : Front: L C R, Side: L R, LFE
Частота : 48,0 КГц
Битовая глубина : 16 бит
Метод сжатия : С потерями
Размер потока : 309 Мбайт (21%)
Выравнивание : Разделение по промежуткам
Продолжительность промежутка : 40 мс. (1,00 видеокадр)
Время предзагрузки промежутка : 500 мс.
[teatrix.ru].t12830.torrent 
Торрент: Зарегистрирован [ 2016-01-15 16:35 ] · B715AF0B844ED945CB8D4A060AABEDDE679361C3

Скачать .torrent

Скачать

15 KB

Статус: проверено
Скачан: 1 раз
Размер: 1.46 GB
terms.php



Быстрый ответ

Имя:

      
Для отправки сообщений необходимо включить JavaScript
Показать сообщения:    

Текущее время: 06-Дек 19:03

Часовой пояс: UTC + 3


Вы можете начинать темы
Вы можете отвечать на сообщения
Вы не можете редактировать свои сообщения
Вы не можете удалять свои сообщения
Вы не можете голосовать в опросах
Вы не можете прикреплять файлы к сообщениям
Вы можете скачивать файлы