Песнь любви / A Song of Love / Un chant d'amour (Жан Жене / Jean Genet) [1950, Франция, Короткометражка, Фэнтези, Мелодрама, Эротика, DVD5] + Original Eng / BFI


Статистика раздачи [Обновить пиров]
Размер:  1.61 GB   |    Зарегистрирован:  10 месяцев 23 дня   |    Скачан:  0 раз

Полного источника не было: Никогда

Личеров:  2  [  0 KB/s  ]   Подробная статистика пиров
 
   
 
 
 

[Цитировать]

Песнь любви / A Song of Love / Un chant d'amour / BFI
Страна:Франция Жанр:Короткометражка, Фэнтези, Мелодрама, ЭротикаГод выпуска:1950
Продолжительность:00:25:23Производство:British Film Institute Перевод:Не требуетсяCубтитры:Нет
Премьера (мир):2.06.2003
Режиссер:Жан Жене / Jean GenetВ ролях:Андре Рейбаз, Жава, Коко Ле Мартиниквэ, Люсьен Сенемо
Описание:Фильм повествует о тюремном страже, который тайно наблюдает за двумя влюблёнными друг в друга заключёнными, помещёнными в соседние камеры, его фантазиях и желаниях. Доп. информация:Исходник найден в сети.Продюсер:Никос Папатакис
Сценарий:Жан Жене
Оператор:Жак НаттоКомпозитор:Гэвин БрайарсХудожник:Морис КолассонМонтаж:Жан Жене

Знаете ли вы, что

Рецензия

Бонусы:(Без перевода)

- Commentary by writer Jane Giles and filmmaker Richard Kwietniowski
- Biographies of Genet and Fisher Turner
- New music score by Simon Fisher Turner
Меню:Английский, анимированное, неозвученное.Сэмпл:https://www.sendspace.com/file/bv55o1Тип релиза:DVD5
Контейнер:DVD-Video
Видео:PAL 4:3 (720x576) VBR, 7812 Кбит/сек, 25,000 кадров/секАудио 1:Английский:AC3, 6 ch, 48.0 KHz, 448 Кбит/сек / (Оригинал)Аудио 2:Английский:AC3, 2 ch, 48.0 KHz, 192 Кбит/сек / Комментарий Jane Giles, Richard Kwietniowski

Dvd Info

Title: W(media)
Size: 1.61 Gb ( 1 688 236 KBytes ) - DVD-5
Enabled regions: 1, 2, 3, 4, 5, 6, 7, 8
VTS_01 :
Play Length: 00:00:42
Video: PAL 4:3 (720x576) VBR
Audio:
English (Dolby AC3, 2 ch)
VTS_02 :
Play Length: 00:25:23
Video: PAL 4:3 (720x576) VBR
Audio:
English (Dolby AC3, 6 ch)
English (Dolby AC3, 2 ch)

Mediainfo

Общее
Полное имя : F:\Un chant d'amour DVD-5 \VIDEO_TS\VTS_02_1.VOB
Формат : MPEG-PS
Размер файла : 1024 Мбайт
Продолжительность : 16 м.
Режим общего битрейта : Переменный
Общий поток : 8623 Кбит/сек
Видео
Идентификатор : 224 (0xE0)
Формат : MPEG Video
Версия формата : Version 2
Профиль формата : Main@Main
Параметр BVOP формата : Да
Параметр матрицы формата : Выборочная
Параметр GOP формата : M=3, N=15
Структура изображения : Frame
Продолжительность : 16 м.
Вид битрейта : Переменный
Битрейт : 7812 Кбит/сек
Максимальный битрейт : 8000 Кбит/сек
Ширина : 720 пикселей
Высота : 576 пикселей
Соотношение сторон : 4:3
Частота кадров : 25,000 кадров/сек
Стандарт вещания : PAL
Цветовое пространство : YUV
Субдискретизация насыщенности : 4:2:0
Битовая глубина : 8 бит
Тип развёртки : Чересстрочная
Порядок развёртки : Верхнее поле первое
Метод сжатия : С потерями
Бит/(Пиксели*Кадры) : 0.753
Временной код первого кадра : 09:59:58:00
Оригинал временного кода : Group of pictures header
GOP, открыто/закрыто : Открыто
Размер потока : 928 Мбайт (91%)
Аудио #1
Идентификатор : 189 (0xBD)-128 (0x80)
Формат : AC-3
Формат/Информация : Audio Coding 3
Расширение режима : CM (complete main)
Параметр Endianness формата : Big
Режим смешивания : DVD-Video
Продолжительность : 16 м.
Вид битрейта : Постоянный
Битрейт : 448 Кбит/сек
Каналы : 6 каналов
Расположение каналов : Front: L C R, Side: L R, LFE
Частота : 48,0 КГц
Метод сжатия : С потерями
Задержка видео : 3 мс.
Размер потока : 53,2 Мбайт (5%)
Аудио #2
Идентификатор : 189 (0xBD)-129 (0x81)
Формат : AC-3
Формат/Информация : Audio Coding 3
Расширение режима : CM (complete main)
Параметр Endianness формата : Big
Режим смешивания : DVD-Video
Продолжительность : 16 м.
Вид битрейта : Постоянный
Битрейт : 192 Кбит/сек
Каналы : 2 канала
Расположение каналов : Front: L R
Частота : 48,0 КГц
Метод сжатия : С потерями
Задержка видео : 9 мс.
Размер потока : 22,8 Мбайт (2%)

Скриншоты меню

Скриншоты

Скриншоты доп. материалов


Полиграфия



[teatrix.ru].t12831.torrent 
Торрент: Зарегистрирован [ 2016-01-15 16:35 ] · D2D50BF565FADFD1CC7E3EA397FC1B53113125C7

Скачать .torrent

Скачать

17 KB

Статус: проверено
Скачан: 0 раз
Размер: 1.61 GB
terms.php



Быстрый ответ

Имя:

      
Для отправки сообщений необходимо включить JavaScript
Показать сообщения:    

Текущее время: 08-Дек 10:59

Часовой пояс: UTC + 3


Вы можете начинать темы
Вы можете отвечать на сообщения
Вы не можете редактировать свои сообщения
Вы не можете удалять свои сообщения
Вы не можете голосовать в опросах
Вы не можете прикреплять файлы к сообщениям
Вы можете скачивать файлы