Остров / Island (Элизабет Митчелл, Брек Тейлор / Elizabeth Mitchell, Brek Taylor) [2011, Великобритания, драма, DVD9 (Custom)] Sub Rus + Original Eng


Статистика раздачи [Обновить пиров]
Размер:  7.65 GB   |    Зарегистрирован:  10 месяцев 19 дней   |    Скачан:  0 раз
Сидов:  2  [  0 KB/s  ]   Личеров:  2  [  0 KB/s  ]   Подробная статистика пиров
 
   
 
 
 

[Цитировать]

Остров / Island
Страна: Великобритания
Жанр: драма
Год выпуска: 2011
Продолжительность: 01:36:28
Перевод: Субтитры (reaktivv)
Cубтитры: русские
Оригинальная аудиодорожка: английский
Режиссер: Элизабет Митчелл, Брек Тейлор / Elizabeth Mitchell, Brek Taylor
В ролях: Натали Пресс, Колин Морган, Джанет МакТир, Таня Фрэнкс, Денис Орита, Кейт Стивенс, Алекс Дональд, Никки Танген, Шарлотта Уонтнер, Уилл Пэйс
Описание: 29-летняя Никки Блэк приезжает на один из дальних островов Гебридского архипелага, чтобы найти мать, которая бросила её в детстве, и отомстить ей. Но встреча со сводным братом заставляет Никки усомниться в своих планах. По мотивам одноименного романа Джейн Роджерс (Jane Rogers).
Дополнительная информация по релизу: Внесённые в оригинальный DVD изменения - добавлены русские субтитры. Оригинальных субтитров на DVD нет, русские сделаны с нуля, тайминг и редакция - night_spell при содействии Colin Morgan's team
См. также - рецензия на оригинальное издание.
Сэмпл: mediafire.com, multi-up.com
Меню: частично анимированное и озвученное
Дополнительные / бонусные материалы: трейлер, making of, фотографии со съёмочной площадки, закадровые комментарии режиссёров.
Качество видео: DVD9 (Custom)
Формат видео: DVD Video
Видео: MPEG-2, PAL 16:9 (720x576), 25.000 fps, 7500Kbps
Аудио 1: English AC3, DD 2.0, 48000Hz, 192Kbps
Аудио 2: English AC3, DD 5.1, 48000Hz, 448Kbps
Аудио 3: English AC3, DD 2.0, 48000Hz, 192Kbps - комментарии

DVDInfo

Title: Seagate Backup Plus Drive
Size: 7.65 Gb ( 8 019 644 KBytes ) - DVD-9
Enabled regions: 1, 2, 3, 4, 5, 6
VTS_01 :
Play Length: 00:01:36
Video: PAL 16:9 (720x576) VBR, Auto Pan&Scan
Audio:
Not specified (Dolby AC3, 2 ch)
VTS_02 :
Play Length: 01:36:28
Video: PAL 16:9 (720x576) VBR, Auto Pan&Scan
Audio:
English (Dolby AC3, 2 ch)
English (Dolby AC3, 6 ch)
English (Dolby AC3, 2 ch)
Subtitles:
Russian
VTS_03 :
Play Length: 00:01:32
Video: PAL 16:9 (720x576) VBR, Auto Pan&Scan
Audio:
English (Dolby AC3, 2 ch)
VTS_04 :
Play Length: 00:01:08
Video: PAL 16:9 (720x576) VBR, Auto Pan&Scan
Audio:
English (Dolby AC3, 2 ch)
VTS_05 :
Play Length: 00:03:13
Video: PAL 16:9 (720x576) VBR, Auto Pan&Scan
Audio:
English (Dolby AC3, 2 ch)
VTS_06 :
Play Length: 00:05:12
Video: PAL 16:9 (720x576) VBR, Auto Pan&Scan
Audio:
English (Dolby AC3, 2 ch)
VTS_07 :
Play Length: 00:04:34
Video: PAL 16:9 (720x576) VBR, Auto Pan&Scan
Audio:
English (Dolby AC3, 2 ch)
VTS_08 :
Play Length: 00:03:20
Video: PAL 16:9 (720x576) VBR, Auto Pan&Scan
Audio:
English (Dolby AC3, 2 ch)
VTS_09 :
Play Length: 00:04:04
Video: PAL 16:9 (720x576) VBR, Auto Pan&Scan
Audio:
English (Dolby AC3, 2 ch)
VTS_10 :
Play Length: 00:05:17
Video: PAL 16:9 (720x576) VBR, Auto Pan&Scan
Audio:
English (Dolby AC3, 2 ch)
VTS_11 :
Play Length: 00:05:59
Video: PAL 16:9 (720x576) VBR, Auto Pan&Scan
Audio:
English (Dolby AC3, 2 ch)
VTS_12 :
Play Length: 00:01:28
Video: PAL 16:9 (720x576) VBR, Auto Pan&Scan
Audio:
English (Dolby AC3, 2 ch)
VTS_13 :
Play Length: 00:04:12
Video: PAL 16:9 (720x576) VBR, Auto Pan&Scan
Audio:
English (Dolby AC3, 2 ch)
VTS_14 :
Play Length: 00:00:21
Video: PAL 16:9 (720x576) VBR, Auto Pan&Scan
Audio:
English (Dolby AC3, 2 ch)
VTS_15 :
Play Length: 00:01:58
Video: PAL 16:9 (720x576) VBR, Auto Pan&Scan
Audio:
English (Dolby AC3, 2 ch)
VTS_16 :
Play Length: 00:01:32
Video: PAL 16:9 (720x576) VBR, Auto Pan&Scan
Audio:
English (Dolby AC3, 2 ch)

MediaInfo

Полное имя : C:\Users\vaio\Desktop\Island DVD\VIDEO_TS\VTS_02_1.VOB
Формат : MPEG-PS
Размер файла : 1024 Мбайт
Продолжительность : 16 м.
Режим общего битрейта : Переменный
Общий поток : 8485 Кбит/сек
Видео
Идентификатор : 224 (0xE0)
Формат : MPEG Video
Версия формата : Version 2
Профиль формата : Main@Main
Параметр BVOP формата : Да
Параметр матрицы формата : По умолчанию
Параметр GOP формата : M=2, N=12
Продолжительность : 16 м.
Вид битрейта : Переменный
Битрейт : 7500 Кбит/сек
Ширина : 720 пикселей
Высота : 576 пикселей
Соотношение сторон : 16:9
Частота кадров : 25,000 кадров/сек
Стандарт вещания : PAL
Цветовое пространство : YUV
Субдискретизация насыщенности : 4:2:0
Битовая глубина : 8 бит
Тип развёртки : Чересстрочная
Порядок развёртки : Нижнее поле первое
Метод сжатия : С потерями
Бит/(Пиксели*Кадры) : 0.723
Размер потока : 903 Мбайт (88%)
Аудио #1
Идентификатор : 189 (0xBD)-128 (0x80)
Формат : AC-3
Формат/Информация : Audio Coding 3
Расширение режима : CM (complete main)
Параметр Endianness формата : Big
Режим смешивания : DVD-Video
Продолжительность : 16 м.
Вид битрейта : Постоянный
Битрейт : 192 Кбит/сек
Каналы : 2 канала
Расположение каналов : Front: L R
Частота : 48,0 КГц
Битовая глубина : 16 бит
Метод сжатия : С потерями
Задержка видео : -40 мс.
Размер потока : 23,2 Мбайт (2%)
Аудио #2
Идентификатор : 189 (0xBD)-129 (0x81)
Формат : AC-3
Формат/Информация : Audio Coding 3
Расширение режима : CM (complete main)
Параметр Endianness формата : Big
Режим смешивания : DVD-Video
Продолжительность : 16 м.
Вид битрейта : Постоянный
Битрейт : 448 Кбит/сек
Каналы : 6 каналов
Расположение каналов : Front: L C R, Side: L R, LFE
Частота : 48,0 КГц
Битовая глубина : 16 бит
Метод сжатия : С потерями
Задержка видео : -40 мс.
Размер потока : 54,1 Мбайт (5%)
Аудио #3
Идентификатор : 189 (0xBD)-130 (0x82)
Формат : AC-3
Формат/Информация : Audio Coding 3
Расширение режима : CM (complete main)
Параметр Endianness формата : Big
Режим смешивания : DVD-Video
Продолжительность : 16 м.
Вид битрейта : Постоянный
Битрейт : 192 Кбит/сек
Каналы : 2 канала
Расположение каналов : Front: L R
Частота : 48,0 КГц
Битовая глубина : 16 бит
Метод сжатия : С потерями
Задержка видео : -40 мс.
Размер потока : 23,2 Мбайт (2%)
Текст
Идентификатор : 189 (0xBD)-32 (0x20)
Формат : RLE
Формат/Информация : Run-length encoding
Режим смешивания : DVD-Video
Меню

Soft + Скриншот финального проекта

Subtitle Workshop
MaestroSBT
PgcDemux
MuxMan
DVDRemake Pro

Скриншоты меню

Скриншоты субтитров

Скриншоты фильма

Скриншоты дополнительных материалов

[teatrix.ru].t12833.torrent 
Торрент: Зарегистрирован [ 2016-01-15 17:56 ] · 215E6F5106B6DB0BF7D9E1A64A907C412BE90E18

Скачать .torrent

Скачать

23 KB

Статус: проверено
Скачан: 0 раз
Размер: 7.65 GB
terms.php



Быстрый ответ

Имя:

      
Для отправки сообщений необходимо включить JavaScript
Показать сообщения:    

Текущее время: 04-Дек 04:58

Часовой пояс: UTC + 3


Вы можете начинать темы
Вы можете отвечать на сообщения
Вы не можете редактировать свои сообщения
Вы не можете удалять свои сообщения
Вы не можете голосовать в опросах
Вы не можете прикреплять файлы к сообщениям
Вы можете скачивать файлы