Молода и прекрасна / Jeune & jolie (Франсуа Озон / François Ozon) [2013, Франция, драма, BDRip] Dub


 

[Цитировать]

Молода и прекрасна / Jeune & jolie
Страна: Франция
Жанр: драма
Год выпуска: 2013
Продолжительность: 01:33:20
Перевод: Профессиональный (дублированный)
Cубтитры: нет

Режиссер: Франсуа Озон / François Ozon
В ролях: Марина Вакт, Жеральдин Пайя, Фредерик Пьеро, Шарлотта Рэмплинг, Фантен Рава, Йохан Лейзен, Натали Ришар, Джедже Апали, Люка Призор, Лорен Дельбек
Описание: Семнадцатилетняя Изабель погружается в бездонный мир любви, в поиски себя. Не столько из-за денег, сколько ради удовольствия, она встречается с немолодыми клиентами в гостиничных номерах. Близкие Изабель не подозревают, чем одержима умная и тонкая девушка. Но однажды умирает один из ее постоянных клиентов...
Качество видео: BDRip [Jeune & Jolie (Young & Beautiful) 2013 BDRemux 1080p GORESEWAGE.mkv]
Формат видео: AVI
Видео: 720x384 (1.88:1), 23.976 fps, XviD build 73 ~1839 kbps avg, 0.28 bit/pixel
Аудио: 48 kHz, AC3 Dolby Digital, 3/2 (L,C,R,l,r) + LFE ch, ~384 kbps

MediaInfo

Общее
Полное имя : H:\Jeune.&.Jolie.bdrip_[1.46]_[teko].avi
Формат : AVI
Формат/Информация : Audio Video Interleave
Размер файла : 1,46 Гбайт
Продолжительность : 1 ч. 33 м.
Общий поток : 2233 Кбит/сек
Программа кодирования : VirtualDubMod 1.5.10.3 | www.virtualdub-fr.org || (build 2550/release)
Библиотека кодирования : VirtualDubMod build 2550/release
Видео
Идентификатор : 0
Формат : MPEG-4 Visual
Профиль формата : Advanced Simple@L5
Параметр BVOP формата : 1
Параметр QPel формата : Нет
Параметр GMC формата : Без точки перехода
Параметр матрицы формата : Выборочная
Идентификатор кодека : XVID
Идентификатор кодека/Подсказка : XviD
Продолжительность : 1 ч. 33 м.
Битрейт : 1840 Кбит/сек
Ширина : 720 пикселей
Высота : 384 пикселя
Соотношение сторон : 1,85:1
Частота кадров : 23,976 кадра/сек
Цветовое пространство : YUV
Субдискретизация насыщенности : 4:2:0
Битовая глубина : 8 бит
Тип развёртки : Прогрессивная
Метод сжатия : С потерями
Бит/(Пиксели*Кадры) : 0.278
Размер потока : 1,20 Гбайт (82%)
Библиотека кодирования : XviD 73
Аудио
Идентификатор : 1
Формат : AC-3
Формат/Информация : Audio Coding 3
Расширение режима : CM (complete main)
Параметр Endianness формата : Big
Идентификатор кодека : 2000
Продолжительность : 1 ч. 33 м.
Вид битрейта : Постоянный
Битрейт : 384 Кбит/сек
Каналы : 6 каналов
Расположение каналов : Front: L C R, Side: L R, LFE
Частота : 48,0 КГц
Битовая глубина : 16 бит
Метод сжатия : С потерями
Размер потока : 256 Мбайт (17%)
Выравнивание : Разделение по промежуткам
Продолжительность промежутка : 42 мс. (1,00 видеокадр)
Время предзагрузки промежутка : 500 мс.



Показать сообщения:    

Текущее время: 09-Дек 12:39

Часовой пояс: UTC + 3


Вы не можете начинать темы
Вы не можете отвечать на сообщения
Вы не можете редактировать свои сообщения
Вы не можете удалять свои сообщения
Вы не можете голосовать в опросах
Вы не можете прикреплять файлы к сообщениям
Вы не можете скачивать файлы