(Classical) Max Bruch - Symphonies Nos. 1 & 2 - Staatskapelle Weimar, Michael Halász (Halasz) - 2010, FLAC (image+.cue) lossless


 

[Цитировать]

Max Bruch - Symphonies Nos. 1 & 2 - Staatskapelle Weimar, Michael Halász
Жанр: Classical
Год издания диска: 2010
Издатель (лейбл): Naxos
Номер по каталогу: 8.570994
Дата записи: 2008
Аудиокодек: FLAC
Тип рипа: image+.cue
Битрейт аудио: lossless
Продолжительность: 61:07
Источник: собственный рип
Наличие сканов в содержимом раздачи: да
Треклист:
Max Bruch (1838–1920)
[1]-[4] Symphony No. 1 in E flat major, Op. 28
[5]-[7] Symphony No. 2 in F minor, Op. 36
Исполнители:
Staatskapelle Weimar
Michael Halász

Лог создания рипа

Exact Audio Copy V1.1 from 23. June 2015
EAC extraction logfile from 11. January 2016, 21:28
Staatskapelle Weimar, Michael Halász / Bruch - Symphonies Nos. 1 and 2
Used drive : HL-DT-STDVDRAM GU70N Adapter: 1 ID: 0
Read mode : SecureUtilize accurate stream : YesDefeat audio cache : YesMake use of C2 pointers : No
Read offset correction : 48Overread into Lead-In and Lead-Out : NoFill up missing offset samples with silence : YesDelete leading and trailing silent blocks : NoNull samples used in CRC calculations : YesUsed interface : Native Win32 interface for Win NT & 2000
Used output format : User Defined EncoderSelected bitrate : 128 kBit/sQuality : HighAdd ID3 tag : NoCommand line compressor : C:\Program Files (x86)\Exact Audio Copy\Flac\flac.exeAdditional command line options : -V -8 -T "Date=%year%" -T "Genre=%genre%" %source%
TOC of the extracted CD
Track | Start | Length | Start sector | End sector --------------------------------------------------------- 1 | 0:00.00 | 9:33.20 | 0 | 42994 2 | 9:33.20 | 4:45.12 | 42995 | 64381 3 | 14:18.32 | 5:22.63 | 64382 | 88594 4 | 19:41.20 | 8:02.28 | 88595 | 124772 5 | 27:43.48 | 12:00.16 | 124773 | 178788 6 | 39:43.64 | 12:04.16 | 178789 | 233104 7 | 51:48.05 | 9:16.72 | 233105 | 274876
Range status and errors
Selected range
Filename C:\temp\Naxos_8.570994 - Bruch - Symphonies Nos. 1 & 2\Bruch - Symphonies Nos. 1 and 2.wav
Peak level 94.6 % Extraction speed 5.0 X Range quality 100.0 % Test CRC CB1EC9FC Copy CRC CB1EC9FC Copy OK
No errors occurred
AccurateRip summary
Track 1 accurately ripped (confidence 3) [251849AB] (AR v2)Track 2 accurately ripped (confidence 3) [67A17FD0] (AR v2)Track 3 accurately ripped (confidence 3) [0A910BB7] (AR v2)Track 4 accurately ripped (confidence 3) [6378A227] (AR v2)Track 5 accurately ripped (confidence 3) [2288CDDA] (AR v2)Track 6 accurately ripped (confidence 3) [E578697E] (AR v2)Track 7 accurately ripped (confidence 3) [45A18FC3] (AR v2)
All tracks accurately ripped
End of status report
==== Log checksum 45887024A132D4FDE75ABA890A1B5BBC8F7F97118EB9B7445F932A955EC8EC21 ====



Показать сообщения:    

Текущее время: 04-Дек 06:56

Часовой пояс: UTC + 3


Вы не можете начинать темы
Вы не можете отвечать на сообщения
Вы не можете редактировать свои сообщения
Вы не можете удалять свои сообщения
Вы не можете голосовать в опросах
Вы не можете прикреплять файлы к сообщениям
Вы не можете скачивать файлы