Мадам, Вы прекрасны! Юбилейный вечер М.В.Мироновой [1996 г., Юбилейный вечер, TVRip]


Статистика раздачи [Обновить пиров]
Размер:  621 MB   |    Зарегистрирован:  10 месяцев 20 дней   |    Скачан:  0 раз

Полного источника не было: Никогда

Личеров:  2  [  0 KB/s  ]   Подробная статистика пиров
 
   
 
 
 

[Цитировать]

Мадам, Вы прекрасны! Юбилейный вечер М.В.Мироновой Год выпуска: 1996.
Жанр: Юбилейный вечер.
Продолжительность: 00:33:22.
Поздравить Марию Владимировну пришли: Борис Покровский, Алла Сурикова, Лев Дуров, Борис Поюровский, Евгений Петросян, Людмила Гурченко, Александр Ширвиндт, Марк Захаров, Григорий Горин, Наина Ельцина и многие другие.
Описание:
7 января 1996 года Марии Владимировне Мироновой исполнилось 85 лет. В тот вечер она играла на сцене театра "Школа современной пьесы" в спектакле-бенефисе "Уходил старик от старухи".
Дополнительная информация:
Страна: Россия .
Выпущено: © Художественное вещание "Лад".
Релиз
Большое спасибо SKEnic за предоставленный материал!!!

Качество видео:...WEB-DLRip
Формат:.................AVI
Видео:..688x512 (1.34:1), 25 fps, XviD MPEG-4 ~2399 kbps avg, 0.27 bit/pixel
Аудио:..48 kHz, AC3 Dolby Digital, 2/0 (L,R) ch, ~192 kbps

Отчет Media Info

General
Complete name : Madam.Vy.prekrasny.1996.XviD.TVRip.fenixclub.avi
Format : AVI
Format/Info : Audio Video Interleave
File size : 621 MiB
Duration : 33mn 21s
Overall bit rate : 2 601 Kbps
Writing application : VirtualDubModRus 1.5.10.2 (build 2542/release)
Writing library : VirtualDubMod build 2542/release
Video
ID : 0
Format : MPEG-4 Visual
Format profile : Simple@L5
Format settings, BVOP : No
Format settings, QPel : No
Format settings, GMC : No warppoints
Format settings, Matrix : Default (H.263)
Codec ID : XVID
Codec ID/Hint : XviD
Duration : 33mn 21s
Bit rate : 2 400 Kbps
Width : 688 pixels
Height : 512 pixels
Display aspect ratio : 5:4
Original display aspect rat : 4:3
Frame rate : 25.000 fps
Color space : YUV
Chroma subsampling : 4:2:0
Bit depth : 8 bits
Scan type : Progressive
Compression mode : Lossy
Bits/(Pixel*Frame) : 0.272
Stream size : 573 MiB (92%)
Writing library : XviD 73
Audio
ID : 1
Format : AC-3
Format/Info : Audio Coding 3
Mode extension : CM (complete main)
Format settings, Endianness : Big
Codec ID : 2000
Duration : 33mn 21s
Bit rate mode : Constant
Bit rate : 192 Kbps
Channel(s) : 2 channels
Channel positions : Front: L R
Sampling rate : 48.0 KHz
Compression mode : Lossy
Stream size : 45.8 MiB (7%)
Alignment : Aligned on interleaves
Interleave, duration : 40 ms (1.00 video frame)
Interleave, preload duratio : 512 ms.

Скриншоты

Альтернативный хост

[teatrix.ru].t12847.torrent 
Торрент: Зарегистрирован [ 2016-01-16 01:10 ] · E789960D2CA6824468D757921CD97C7A1A6CFFFA

Скачать .torrent

Скачать

13 KB

Статус: проверено
Скачан: 0 раз
Размер: 621 MB
terms.php



Быстрый ответ

Имя:

      
Для отправки сообщений необходимо включить JavaScript
Показать сообщения:    

Текущее время: 05-Дек 11:33

Часовой пояс: UTC + 3


Вы можете начинать темы
Вы можете отвечать на сообщения
Вы не можете редактировать свои сообщения
Вы не можете удалять свои сообщения
Вы не можете голосовать в опросах
Вы не можете прикреплять файлы к сообщениям
Вы можете скачивать файлы