Автограф мастера. Валентин Плучек (Ольга Маркичева) [1997 г., Юбилейный вечер, TVRip]


Статистика раздачи [Обновить пиров]
Размер:  742 MB   |    Зарегистрирован:  10 месяцев 24 дня   |    Скачан:  0 раз

Полного источника не было: Никогда

Личеров:  2  [  0 KB/s  ]   Подробная статистика пиров
 
   
 
 
 

[Цитировать]

Автограф мастера. Валентин Плучек Год выпуска: 1997.
Жанр: Юбилейный вечер.
Продолжительность: 00:52:35.
Режиссер: Ольга Маркичева.
Текст читал: Михаил Державин.
Описание:
В 1997 году исполнилось 40 лет, как Валентин Николаевич Плучек в качестве главного режиссёра возглавил Московский академический театр сатиры.
В телепередаче Валентин Николаевич рассказывает истории (новеллы) из своей жизни:
• Как я стал Мейерхольдовцем.
• История одного знакомства. Владимир Маяковский.
• "Белые слоны".
• Мой брат Питер Брук.

Дополнительная информация:
Страна: Россия .
Выпущено: © РТВ БРАВО по заказу Московской независимой вещательной корпорации.
Авторы передачи: Галина Полтавская, Марина Коростылева.
Художественный руководитель: Регина Ильченко.
Операторы: Виталий Пересыпкин, Сергей Гаврилов.
В передаче прозвучала музыка Дмитрия Шостаковича.
Релиз
Большое спасибо SKEnic за предоставленный материал!!!

Качество видео:...WEB-DLRip
Формат:.................AVI
Видео:..688x512 (1.34:1), 25 fps, XviD build 73 ~1769 kbps avg, 0.20 bit/pixel
Аудио:..48 kHz, AC3 Dolby Digital, 2/0 (L,R) ch, ~192 kbps

Отчет Media Info

General
Complete name : Avtograf.mastera.Valentin.Pluchek.1997.XviD.TVRip.fenixclub.avi
Format : AVI
Format/Info : Audio Video Interleave
File size : 742 MiB
Duration : 52mn 35s
Overall bit rate : 1 972 Kbps
Writing application : VirtualDubMod 1.5.10.3 | www.virtualdub-fr.org || (build 2550/release)
Writing library : VirtualDubMod build 2550/release
Video
ID : 0
Format : MPEG-4 Visual
Format profile : Advanced Simple@L5
Format settings, BVOP : 2
Format settings, QPel : No
Format settings, GMC : No warppoints
Format settings, Matrix : Custom
Codec ID : XVID
Codec ID/Hint : XviD
Duration : 52mn 35s
Bit rate : 1 770 Kbps
Width : 688 pixels
Height : 512 pixels
Display aspect ratio : 4:3
Frame rate : 25.000 fps
Color space : YUV
Chroma subsampling : 4:2:0
Bit depth : 8 bits
Scan type : Progressive
Compression mode : Lossy
Bits/(Pixel*Frame) : 0.201
Stream size : 666 MiB (90%)
Writing library : XviD 73
Audio
ID : 1
Format : AC-3
Format/Info : Audio Coding 3
Mode extension : CM (complete main)
Format settings, Endianness : Big
Codec ID : 2000
Duration : 52mn 35s
Bit rate mode : Constant
Bit rate : 192 Kbps
Channel(s) : 2 channels
Channel positions : Front: L R
Sampling rate : 48.0 KHz
Compression mode : Lossy
Stream size : 72.2 MiB (10%)
Alignment : Split accross interleaves
Interleave, duration : 40 ms (1.00 video frame)
Interleave, preload duratio : 500 ms.

Скриншоты

Альтернативный хост

[teatrix.ru].t12848.torrent 
Торрент: Зарегистрирован [ 2016-01-16 01:10 ] · E0C5E9815B038CB19F3DE294434F7DD47DE00708

Скачать .torrent

Скачать

15 KB

Статус: проверено
Скачан: 0 раз
Размер: 742 MB
terms.php



Быстрый ответ

Имя:

      
Для отправки сообщений необходимо включить JavaScript
Показать сообщения:    

Текущее время: 09-Дек 08:49

Часовой пояс: UTC + 3


Вы можете начинать темы
Вы можете отвечать на сообщения
Вы не можете редактировать свои сообщения
Вы не можете удалять свои сообщения
Вы не можете голосовать в опросах
Вы не можете прикреплять файлы к сообщениям
Вы можете скачивать файлы